&title=Doll's Garden
&artist=Memme
&first=0
&des=Doll's Garden
&lv_6=13+
&inote_6=(160)
{1},,
{8}2>4[8:1],4,6<8[8:1],,,,5-3[8:1],1,7>3[4:1],,,,
5h[8:1],8h[8:1],3h[8:1],6h[8:1],1h[8:1],4h[8:1],
2<6[4:1],,6q3[4:1],,3,,
6<2[4:1],6,3,,6h[4:1],,2<6[4:1],2,5,,2h[4:1],,
4>5[8:3],4,1p4[213.333#4:1],,,,2-5[8:1],2,4-8b[32:3],,1x/4`Cf,,
8xpp6[16:7],3,5h[4:1],,,,8xpp6[16:7],6,4h[4:1],,,,
8xpp6[16:7],3,5h[8:1],,4h[8:1],,3>7[4:1],,
7pp3[8:3],,4,,5,,26,
{16}7,8,6,1,5,2,{8}7h[8:1],4h[8:1],1h[8:1],6h[8:1],3,,
{16}8x/5,4,3,2,4/1x,5,6,7,5/8x,4,3,2,7/1x,6,2/5x,3,8-4b[32:3]/4x,7,6x/1,2,
3x/8`Cf,,,,
{8}2b/7b,,15,26,48,37,{16}15,6x/2x,3x/7x,,5/1<2[16:7],4x/8x,7x/3x,,
{8}5,,1,7-3[8:1],5,3,1,5,{16}1,2,3,4,1-5[8:1]/5x,8,7,6,{8}1/5x,,
37,,15,26,48,37,{16}15,6x/2x,3x/7x,,1/5>6[16:7],8x/4x,3x/7x,,
1<1[2:1],,,,5>6[16:7],4,3,2,1,,,,
5,,,,1,2,3,4,1-5b[32:3]/5x,8,7,6,{8}1x/5x`Cf,,
{8}27,,84,73,51,62,{16}84,3x/7x,6x/2x,,4/8>7[16:7],5x/1x,2x/6x,,
{8}4,,8,2-6[8:1],4,6,8,4,{16}8,7,6,5,8-4[8:1]/4x,1,2,3,{8}8/4x,,
62,,84,73,51,62,{16}84,3x/7x,6x/2x,,8/4<3[16:7],1x/5x,6x/2x,,
8,,,,Cf,,,,8,7,6,5,24,,6,,84,37,26,15,8w4b[32:3]/4,,
6x,7x,8x`Cf,,,,
{4}2qq6[1:1],,,,,,7-5[8:1],7xh[2:1],,4-6[8:1],4xh[2:1],,
5-2[8:1],5xpp4[16:11],,5-1[8:1],5xpp4[16:11],,
5-8[8:1],5xpp4[16:11],,1,1,Cf,
3-8[8:1],3xqq4[8:4],,5-1[8:1],5xp4[32:13],,7-2[8:1],7xpp3[8:4],,6,5,
Cf/4,1-5[8:1],1b,{32}B7f,B6,E6,,B1,B2,E3,,{4}8x-3[8:1]*-5[8:1],8b,
{32}B2f,B3,E4,,B8,B7,E7,,{4}1xw5[8:1],1b,37,
{16}6,5,7,4,8,3-7b[213.333#8:1],1,2h[16:5],Cf,,,,
{8}8-4[8:1],1,2-6[8:1],,,,4-6[8:1],8,2<6[4:1],,,,
4h[8:1],1h[8:1],6h[8:1],3h[8:1],8h[8:1],5h[8:1],
2h[4:1],,{16}6,7,8,1,6,7,8,1,
{8}5<3[8:3],5,1,,{16}5,6,7,8,1xh[8:1]/5xh[8:1],,,,48,,
48,37,26,1V36[213.333#3:1]/5,
{8}84,6V48[4:1],,8-4-6[4:1],,6-3-1[16:3],,8-4[8:1],7,6<1b[32:3],,Cf,,
2>4q5<7[2:1],1,8,,7<5p4>2[2:1],,1,8,7,,
{16}8xpp4[8:3],7,6,5,{8}8x-5[8:1],,8xpp6[8:3],,
8x-4[8:1],,,,{16}5,6,7,8,5,4,3,2,
{8}1x/5,,37,
{16}2,1,3,8,4,7,{8}2h[8:1],5h[8:1],8h[8:1],3h[8:1],6,,
{16}1x/4,5,6,7,5/8x,4,3,2,4/1x,5,6,7,2/8x,3,7/4x,6,1-5b[32:3]/5x,2,3x/8,7,
6x/1`Cf,,,,
{8}7-5[8:1],5-3[8:1],3>7[4:1],,7<3[4:1],,
{16}3V57[4:1],2,1,8,7x>4[16:5],8x>4[4:1],1x>5[4:1],2x>6[4:1],3x<7[16:4],,,,
{8}8V64[4:1],2,4>8[4:1],,8<4[4:1],,{16}4,3,2,1,
8x<3[16:5],7x<2[16:5],6x>1[16:5],5x>8[16:5],
{8}8x,,8-6[8:1],6-4[8:1],4>8[4:1],,8<4[4:1],,
{16}4V68[4:1],3,2,1,8x>5[16:5],1x>5[4:1],2x>6[4:1],3x<6[16:3],4x<6[16:2],,,,
1,2,3,4,1x<5[4:1],8x<4[4:1],7x<3[4:1],6x>2[4:1],
{8}1x,,{16}1,8,7,6,1xv7b[32:3]/5xv3b[32:3],2x/6x,3x/7x,4x/8x,{4}Cf,
{8}2-4[8:1],4-6[8:1],6<2[4:1],,2>6[4:1],,
{16}6V42[4:1],7,8,1,2x<5[16:5],1x<5[4:1],8x<4[4:1],7x<3[4:1],6x>2[16:4],,,,
{8}1V35[4:1],7,5<1[4:1],,1>4[16:3],,{16}5,6,7,8,
1x>5[4:1],2x>6[4:1],3x<7[4:1],4x<7[16:3],
{8}1x,,8b-3[8:1]*-5[8:1],,8,,
{16}26,37,48,15,2b-7[8:1]/6b-3[8:1],,,,26,,,,27,,,,
18,7,6,5,4x/8,1,2,3,4x/8,7,6,5,4x/8x,15,26,37,
4xpp7b[16:6]/8xpp3b[16:6],3x/7x,2x/6x,1x/5x,
Cf,,,,{4},
6h[8:5]/2h[2:1],,,7h[8:5]/5h[2:1],,,3h[2:1]/4-8b[80#4:3],
