&title=オレンジの夏
&artist=Hiro/タクマロ
&first=0
&des=KuroNeko
&lv_6=12+
&inote_6=(132)
{1},
{32}4,3,2,
{8}1h[16:29],,,,,,,,,,,,6,6,{16},6b,,,
{16}
2,,1,,8/3,,7,,4,,5,,1/6,,3,4,
3,,7,,6/1,,2,,5,,4,,8/3,,6,5,
6,,1,,8/3,,7,,4,,5,,1/6,,3,4,
3,,7,,6/1,,2,,5,,4,,7/2,,8/1,,
2,,1,,8/3,,7,,4,,5,,1/6,,3,4,
2h[16:2],,7,,5/1,,2,,6,,5,,8/4,,6,5,
7h[16:2],,1,,4/8,,7,,3,,4,,1/5,,3,4,
2,,1,,8,,7,,1s5[4:1]/6,,3/8,,,8h[16:2],,,
{16}
7-4[8:1],,,8,,,1,,2-5[8:1],,,1,,,8,,
7-4[8:1],,,8,,,1,,3h[4:1],,2,,1,,,,
2-6[8:1]/6,,,1,2,,8,,7-3[8:1]/3,,,8,7,,1,,
2-6[8:1]/6,,,1,2,,8,,7-3[8:1]/3,,,8,7,,1,,
6<1[8:1],,,5,,,4,,3>8[8:1],,,4,,,5,,
6<1[8:1],,,5,,,4,,2h[4:1],,3,,4,,,,
3-7[8:1]/7,,,4,3,,5,,6-2[8:1]/2,,,5,6,,4,,
3-7[8:1]/7,,,4,3,,5,,6/3>6[16:3],,1b/8b,,,5h[8:1],,,
{16}
1/3,,2,1,2v5[8:1],,2,,8,,7,,6,,4,,
8/6,,7,8,7v4[8:1],,7,,1,,2,,3,,5,,
1/3,,2,1,2v5[8:1],,2,,8,,7,,6-3[8:1],,4,,
2-7[8:1],,,,8-5[8:1],,,,4-1[8:1],,,,,,,,
8/6,,7,8,7q4[8:1],,7,,1,,2,,3/4,,4/5,,
1/3,,2,1,2p5[8:1],,2,,8,,7,,6/5,,4/5,,
8/6,,7,8,7q4[8:1],,7,,1,,2,,3/4,,5/6,,
1/8,,7,5,6,,2,4,3,,1/8,,{32}7,6,5,4,3,2,1,8,
{16}
7b/3b,,,,6,,8p4[8:1],,3,,,,2,,1,8,
1q5[8:1],,,,6,,,,7p3[8:1],,,,2,,,,
1q5[8:1]/8,,,,6,,,,8p4[8:1]/1,,,,3,,,,
3/6,,1,8,1,8,1,,4/5,,2b/7b,,3,4,5,6,
8V64[8:1],,4,,2,,,,1V35[8:1],,5,,7,,,,
7V53[8:1],,3,,1,,,,2V46[8:1],,6,,8b,,,,
8v5[8:1],,6,,3,,,,1v4[8:1],,3,,6,,,,
7v4[8:1],,5,,2,,,,2v5[8:1],,4,,7b,,,,
6-2[8:1],,4,,8,,,,3-7[8:1],,5,,1,,,,
8-4[8:1],,6,,2,,,,1-5[8:1],,3,,7,,,,
7-4[8:1]/4,,6,5,7,,,,2-5[8:1]/5,,3,4,2,,,,
7-4[8:1]/4,,6,5,7,,,,3/6,,2,1,2<7[8:1],1,2,1,
{16}
2b,,,4,4,,1,,2/8,,,3,3,,7,,
6/8,,,1,1,,5,,6/3,,,8,8-5[8:1],,4,,
8/3,,,2,2,,8,,4/5,,,6,6,,1,,
3/4,,,,7/8,,,,2/3,,1,,8-4[8:1],,7,,
6,,,7,7,,1,,3/6,,,2,2,,5,,
7/1,,3-6[8:1]*<6[8:1],,3,,3,,,,7,,6,,5,,
5<1[4:1],,,,1>5[4:1],,,,5<1[4:1],,,,1s5[2:1],,,,
2,,,,2,,,,1,,1,,1/6h[8:1],,1,,
7b/8,,4,5,4,,2,,1/8,,6,5,6,,3/4,,
2,,1,,8pp3[4:1],,7qq4[4:1],,,,,,,,,,
2/1,,6,5,7,,8,,2/1,,3,4,2,,1,,
3-7[8:1],,5-1[8:1],,3,,5,,2,,3/4,,5,,6,,
8V64[8:1]*v3[8:1],,,,8,,,,1V35[8:1]*v6[8:1],,,,1,,,,
7<3[8:1]*v2[8:1],,,,7,,,,2>6[8:1]*v7[8:1],,,,2,,,,
8V24[8:1]*v5[8:1],,,,8,,,,1V75[8:1]*v4[8:1],,,,1,,,,
4-1[8:1]/5-8[8:1],,,,4/5,,,,1/8,,3/6,,2,1,8,7,6b,
