&title=スケッチスイッチ
&artist=前澤寛之; 安藤高弘; feat. ゆの(阿澄佳奈)・宮子(水橋かおり)・ヒロ(後藤邑子)・沙英(新谷良子)
&first=0.17
&des=freelance
&lv_5=12.6
&des_5=
&inote_5=
(179){4},{1},,,,,,,{4},,,6,
7/5,3,4/2,
5/4,{8}5/4,6/3,,7/2,,7h[8:5]/2h[8:3],
,,,,,,{4}1,
2,3,4,5,
{8}5,5,6,7/2,{4}7/2,8b,
{8}1,1,2,6/3,{4}6/3,4b,
5,6,7,8,
1,{8}2/8,3/7,,6/4,,,{4}C,
{16}B2,,,,{4}6-2[16:3],3-7[16:3],
5-1[16:3],4-8[16:3],,1x,
1xh[8:1],E7/E3,B8,1xw5[8:7],
,,,,7-3[8:1],
,,2bx,
8-5[8:1]/1-4[8:1],B7/B2/B6/B5/E5/B4/B3/Cf,{2}5bx/4bx,
{4}A3,B3,E4,B4,
{8}B5,B6,,E6,,A6,,,{4}Cfh[4:3],
,,3-6[4:3],
,,,A6,
A7,A6,{2}A7,
{16}3v4[4:1]/2v5[4:1],,,,,,,B5/E5/B4,,,,,{4}5xh[2:1],
4xh[2:1],,,5,
4,3,2,3h[2:1],
{2}6h[4:1],{4}E7/E3,B6/B3,
Ch[2:1],,,7x-4[8:1]/8x-5[8:1],
,1x-4[8:1]/2x-5[8:1],,A7/E7/B6/B7/A6,
B2/E3/A2/B3/A3,A7/E7/A6/B7/B6,A2/E3/B3/B2/A3,3x<6[8:3]/6x-3[8:3],
,,{2}B8/B7/E7/B6/B1/B2/E1/E3/B3/E6/B5/E4/B4/Cf,
{4}B8/B7/B6/B5/B4/B3/B2/B1,E7/C/E3,E8/B7/B6/B5/B4,E7/C/E3,
1qq7[4:1],1v6[4:1],1-5[4:1],1v4[4:1],
1pp3[4:1],1x,,,{1}3x>2-6<7-3[4:7]/6x<7-3>2-6[4:7],
{8},,,,,,,,,,,,,7x-5v4-2[8:5],
7x,7x,
,,,,,,,,,8/1,
,7/2,,,{4}4/5,
{8}5,4,4,3h[4:1],,6h[4:1],{16},,,,,,,5,
,,,6h[4:1],,,,3h[8:3],,,,,,6,
,,,,{8}6/3,,6/3,,7/2,
,,1,1,8,1,{4}8,
{2}7q2[4:1],{4}C,3q6[4:1],
,C,,E2f/B1/B2,
2xh[8:1],3h[8:1],4h[8:1],5h[8:1],
6h[8:1],7h[8:1],8/1,7/2,
6/3,2-7[1:10],{2}3bx-6b[4:5],
,,,,,,,,,,,,,,{1}6-3[4:7],
,{4},,{16},1b,
,,,,,,,,{8}8,
,2,7,3,8bx-6>5v8[4:7],2x-4<5v2b[8:13],
,,,,,,,,,,,,,,,,{4}E6/E4,
B5/B4/E6/E4,{8}B6/B3,B7/B2/E7/E3,B8/B1,E1f,
E
