&title=Axium Divergence
&artist=ak+q
&first=0.023
&des=Hakusei
&des_5=Hakusei
&lv_5=14
&inote_5=(170){4},,,,{32}E4,
E5,{16}E6,{4},,,{16},,{32}E5,
E6,{16}E7,{4},,,{16},,{32}3h[4:1]/E5,
E6,{16}E7,{32},,,,,,,,,,,,3h[4:1]/E5,E6,{16}E7,,,,,,,{8}3,
5,2,4h[4:1],,1,{32},,,,,,,,E2,
E1,{16}E8,{4},,,{16},,{32}2h[4:1]/E1,
E8,{16}E7,{32},,,,,,,,,,,,2h[4:1]/E8,E7,{16}E6,,,,,,,{8}5,
3,6,4h[4:1],,8,8,3,
{1}Ch[4:3],
{4}8b/2h[4:1],{8}4,{16}4,5,{4}6-1-7[4:1],{8}3,3,
{4}2-6[8:1],{8}2/6,7,{16}8,1,{8}8,2,{16}4,3,
{4}4h[8:3],{8}2,{16}2,1,{4}8-4-2[4:1],{8}5,5,
{4}6h[4:1],{8}1,1,{16}7,8,{8}7,{16}6,5,{8}6,
{4}7b/3h[4:1],{8}8,{16}8,7,{4}6-4-7[4:1],{8}3,3,
{4}2q4[4:1],2,{2}8w4[8:1],
{4}6h[8:1]/2h[8:1],2h[8:1]/6h[8:1],7h[8:1]/3h[8:1],4h[8:1]/8h[8:1],
5>2[8:1]/1<6[8:1],1/5,1w5[8:1],1,
(172){1}8bv5-7-4[2:7]*v3-1-4[2:7],
,,,(174)2pp5[8:11]/8qq5[8:11],
,6h[2:1]/5h[2:1],
{8}3h[4:1]/4h[4:1],,,5/2h[#0.8620682],,,,,(177){4}7-5[8:1],
3h[8:1],2/8-4[8:1],8/1,
2-4[8:1],6h[8:1],7/1-5[8:1],1/8,
{8}7-5[8:1],7,{4}3h[8:1],2/8-4[8:1],8/1,
{8}2-4[8:1],2,{4}6h[8:1],7/1-5[8:1],1/8,
(180){8}3,3,6,6,{16}7,8,7,8,{8}7,{16}2,1,
{8}2,2,4,4,{16}8,6,8,6,{8}8,{16}3,4,
3,2,1,8,5,6,7,8,3,4,5,6,3,4,5,6,
1,2,3,4,5/1,6,7,8,{32}5/1,4,3,2,1,8,7,6,{4}5bxq7[0.3333##1.2]`1bxq3b[0.3333##1.2],
(150){1},
(180){4}2x-5[8:1],{16}2/6,7,{8}8-4[8:1],{16},,8/3,2,{4}1,
{8}1-5[8:1],5-1[8:1],7,7,{4}8x<5[8:1]*>3[8:1],8x,
4x-8[8:1],{16}4/7,6,{8}5-1[8:1],{16},,5/2,3,{4}4,
{8}4-8[8:1],8-4[8:1],6,6,{4}7x<4[8:1]*>2[8:1],7x,
{8}3xh[8:1],{16}4,3,4,3,{8}5,{16}1,6,1,6,{8}2,{16}8,4,
{8}8-4[8:1],4-7[8:1],{16},,,,,,,,2,8,2,8,
{8}1,{16}7,5,6,5,{8}7,{16}2,1,3,8,{8}4,{16}6,5,
6,5,{8}7,{16}2,1,{8}2,{4}2w6[8:1],2,
{16}E8,E7,E6,E5,{8}E4,{16}E1,E2,E3,E4,{8}E5,{16}7,5x,7,5,
7,4,6,3,5,2,4,1,(170){2}3-7[8:1],
(160)1-5[8:1],(150)8b>8[4:5]*<8b[4:5],
{8},,,,,,,,,,,,(170)1/2,
3/8,{16}4-2-5[8:3],7,4,7,
{8}4,5-1[16:3],5,6,{16}6,7,{8}8,4>1[16:3],4,
{16}8,7,6,5,4,3,2,1,{8}8/4,{16}3,7,2,6,{8}1-7[8:1],
1,5-3[8:1],{4}5,{8}1,1,{16}8-6-1[8:3],3,8,3,
{8}8,1-5[16:3],1,2,{16}2,3,{8}4,6,6,
{16}7,4,{8}7,{16}2,1,{8}2>5[16:3],3,{16}6,7,8,1,2,3,
4,5,6/1,2,3,4,{8}5,7-4[8:1],8,7/1,2,
3-5[8:1],7,3-1[8:1],7,3-7[8:1],7-3[8:1],3,6,
5-2[8:1],2-6[8:1],5,1,{2}1-5[8:1],
{4}1-5b[8:1],1/8,{8}7v4[8:1],8,7/1,2,
3-8[8:1],4,3/5-8[8:1],4,5/3,2,1v6[8:1],6-3[8:1],
1,7,7,8,1/2,{16}2,1,2,1,2,1,
{4}2b>5[8:1]*<7[8:1],2b-6[8:1],2b,{16}8,8,8,8,
{4}8b<5[8:1]*>3[8:1],8bw4[8:1],8b,{16}2,4,2,4,
{4}2b-6[8:1],2b/6b,(165){16}5,3,4,3,(156)6,3,4,3,
(148)7,4,5,4,(140)8,5,6,5,(132)1,3,4,3,(120)8,5,6,5,
(108){8}7h[#0.5555573],8,(100)1,{16}2,2,(90){2}3bx>1p8[0.6667##2]`5bx<7q8b[0.6667##2],
,(167),
{8},,,,E7,E6,E5,E4,
{4}E3,E1/B8/B1,{8}E3,E4,E5,E6,
{2}E7,{8}6,5,4,3,
{4}2,1/8,{8}3,4,5,6,
{2}7,{8}6/B2,5,4,3,
{4}B7,2/1,{8}3/B7,4,5,6,
{2}B2,(170){8}3,4,3,4,
{4}B2,B8,{8}6,5,6,5,
{2}7h[2:1],{16}2>5[16:3],,,5p1[16:3],,,{8}6,
6<1[4:1],,,2,{4}2,{8}3-7[8:1],4,
5-8[8:1],,,1,{16}1q5[16:3],,,5>2[16:3],,,{8}6,
6<1[4:1],,,2,{2}2h[2:1],
{4}8,{8}8,7,{16}6v3[16:3],,,3-8[16:3],,,{8}4,
4>1[4:1],,,8,{4}8,{8}6-2[8:1],5,
{2}4-1[8:1],{8}8,8,1/2,3,
{4}4/6<1[8:1],6/2,2,1w5[8:1],
1,7b/3b,{8}6,{16}4,5,{8}4,3,
2h[4:1]/5h[4:1],{16},,,,3/6,4/7,{4}5/8-4[8:1],{8}8/2,2,
{4}1>4[8:1],{8}1/6,7,8h[8:1],{16}2>5[4:1],1,,8,{8}2,
7,7,{4}6>3[4:1],3>8[4:1],8-4[4:1],
{8}2,{16},,,,5/1,6/2,7/3-7[8:1],,,8,,,{8}8,
5/8,4,3,2,{4}1-4[8:1],{8}1,8,
7-2[8:1],7,3-6[8:1],3,8,8,4,4,
7v4[8:1],3v8[8:1],7,3,5h[4:1],{16},,,,6/1,7/2,
{4}3/8w4[8:1],8,{8}6/2,{16}1,7,2,6,3,5,
{8}4-8[8:1],8-3[8:1],4,7,{16}7,6,{8}5,{16}6,5,{8}4,
{16}1b,2,1,2,{8}3b/8b<5[8:1],8,8b/4b,{16}2,2,,5,{8}5,
{16}3>7[8:3],4,2,4,{8}3,8,{4}8h[4:1],{16}6,5,{8}4b-8[8:1]*-1[8:1],
,4b,{16},,2b/7b,3b/6b,{4}4b/5b-8b[8:1],{8}4/5,4,
{16}3,3,{8}1,{16}8,2,7,3,{8}6-4[8:1],4-7[8:1],3,3,
2-8[8:1],8-3[8:1],7,7,{16}6,6,4,5,{8}3,2/4,
{16}1,5,2,6,{8}3,4/5,{16}8,3,1,2,6,5,7,4,
{32}1b,2,3,4,5,6,7,8,{4}1-6b[0.3529##0.1875]/5-2[0.3529##0.1875],(160){2}5b/Cf/1b>7b[4:5],
{16},,,,,,,,,,,,,,B1,B2,
B3,,,C,,,{8}C,{2}2<5[2:3],
,,,2-6[2:3],
{16},,,,,,,,,,,,,,B8,C,
B4,,,B2,,,{8}E2/A1/D2,{2}7-3b[4:5],
,,{1}Cf,
E
