&title=【我查插我】どんがらがっしゃん
&artist=夢限大みゅーたいぷ
&first=0
&des=Life is like a musical
&lv_5=13+
&inote_5=(264)
{8},,,,,,,,
{12}1x,8x,1x,8x,1x,8x,1x,8x,1x,8x,1x,8x,
{8}1x,,3,4,3,6,5,7,
{8}1b,,3q5[16:8],,5,,6,,
{8}7h[4:1],,5,8,2h[8:2],,4,,
{8}1,,35,,8,,46,,
{8}3x/1x,,2x/8x,,1x/7x,,8x/6x,,
{8}5-7[8:1],,2,,4-8[8:1],,6,,
{8}5-1[8:1],,2,,4-2[8:1],,8,,
{8}6h[4:1],,8,5,2h[4:1],,4,,
{8}3x,5,4x,6,2x,5,4x,7,
{8}1b,,6p4[16:8],,4,,3,,
{8}2h[4:1],,4,1,7h[8:2],,5,,
{8}8,,35,,1,,46,,
{8}7x/5x,,2x/1x,,3x/4x,,1x/7x,,
{8}5-1[8:1]/6,,,,8-4[8:1]/2,,,,
{8}3h[4:1],,{12}2x,1x,8x,{8}7x/5x,,3bqq5[8:6],,
{8},,6,,6,,6,,
{12}4,5,4,5,4,5,4,5,4,5,4,5,
{8}2h[4:1],,4x,,3,3,4x,,
{8}2h[4:1],,4x,,3,3,4x,,
{8}7h[4:1],,5x,,6,6,5x,,
{8}7h[4:1],,5,6,4,5,3,,
{8}4h[4:1],,2x,,3,3,5x,,
{8}4h[4:1],,6x,,7,7,5x,,
{8}6h[4:1],,8x,,2,2,8x,,
{8}3h[4:1],,5,4,6,5,7,,
{8}2h[4:1],,5x,,3,4,3,4,
{8}2h[4:1],,6x,,4,5,4,5,
{8}3h[4:1],,7x,,5,6,5,6,
{8}4h[8:2],,7^2[8:2],,2^5[4:1],,5^8[8:2],,
{8},,1x,,E2,E3,E4,E5,
{8}E1,E8,E7,E6,E4,E3,E2,E1,
{8}6xh[4:1],,8,,2,4,3,,
{8}7xh[4:1]/1,,3,,4-8b[8:1],,6,,
{8}7b-5[8:1],,1x,,2,2,4x,,
{8}3-5[8:1],,6x,,7,7,1x,,
{8}5h[4:1],,2x,,34,,1x/7x,,
{8}2h[4:1],,5,3,6,4,7,,
{8}1-3[8:1],,5x,,6,6,4x,,
{8}7-1[8:1],,2x,,3,3,5x,,
{8}1h[4:1],,7x,,56,,2x/8x,,
{8}4h[4:1],,7,7,5,8,2,6,
{8}3V52-8[8:5],,7,,6,,5,,
{8}4-7[8:1],,1,,2-5[8:1],,8,,
{8}7V16-4[8:5],,4,,3,,2,,
{8}1h[4:1],,7^4[8:2],,4^1[8:2],,1^6[8:2],,
{8},,4,,35,,7h[4:1],,
{8}1,2,3,4,7,6,5,4,
{8}1x-5[8:1],,1,7x^4[8:1],,7,8x,,
{8}2,5,4,7,1,6,3,8,
{8}2bpp8[8:9],,7,,7,,7,,
{8}6,,6,,6,,1,,
{8}5bpp4[8:8],,2,,2,,2,,
{8}3,,3,,3,,5,,
{8}8b/3b,,1,6h[8:3],1,,3,,
{8}5b/2b,,7,4h[8:3],7,,1,,
{8}3b/7b,,5,1h[8:3],5,,7,,
{8}4xb,6,2,8xb,3,7,1xbV74[16:9],,
{8}3,,3,,3,,3,4,
{8}2,,2-4[8:1]*-6[8:1],,,,,,
{8}5V31[16:7],,6,,6,,6,8,
{8}5,,4-8[8:1]/2-4[8:1],,,,,,
{8}65,,54,,43,,75,,
{8}42,,8x/1h,,7x/6h,,3x/2h,,
{8}A6/D6/A5/E6f/B6/B5/1b,,,A3/D4/A4/E4f/B3/B4/7b,,,1b-5[8:1]/8b-4[8:1],,
{8},,,,6h[4:1]/4,,2-5b[8:1],,
{8}8b,,6,5,84,,3,4,
{8}51,,{12}7x,6,5,{8}1x>6b[8:3],,Cf,,
{8},,7,1,5,,2,8,
{8}4-2[8:1],,48,,5-7[8:1],,15,,
{8}3hb[4:1],,4,2,8,,6/5,,
{8}3,5,1,,6/7,,4,6,
{8}2,,7-5[8:1]/8-4[8:1],,,,3,,
{8}3-1[8:1],,5,,6-8[8:1],,4,,
{8}2,,34,,6,5,7,,
{8}2-5[8:1],,8,,7-4[8:1],,1,,
{8}3,,56,,3,4,1,,
{8}6-1[8:1],,3,,4-8[8:1],,8,,
{8}6,,7xp3[8:1]/1,,7,2x^5[8:1],,2,
{8}8x^5[8:1],,8,2xq6[8:1],,2,7x,,
{8}8h[4:1],,5xp1[8:1],,5,7x,,,
{8}5bpp4[8:4]/1,,,,3,,1-5b[8:1],,
{8}5b,,7,4,13,,2,5,
{12}87,,,{12}6x,7,8,2x<5b[8:3],3,4,A1f/E2/E1,,,
{8},,2,5,8,,6,4,
{8}1^6[8:1],,13,,2^5[8:1],,52,,
{8}7hb[4:1],,5,8,3,,4/2,,
{8}6,1,4,,5/3,,2,8,
{8}5,,6/4w8[8:1],,{24}B4,C,B8/B7/B1,{8},,,
{8}62,,73,,8^5[4:1]/4^1[4:1],,84,,
{8},,51,,2-5[8:1],,6-2[8:1],,
{8}4x-7[8:1],,8x-4[8:1],,1x^4[16:4]*^6[16:4],,1bx,,
{8},,5h[4:1]/4,,{12}6x,7,8,1x,2,3,
{8}4x,,75,,12,,35,,
{8}8x,,4-2b[8:1],,4bx-6b[8:1],,4bx-8[8:1],,
{8},,5b,,,,1b^4b[6:1]/A5f/E6/E5,,
{8},,8b^5b[6:1],,3,,3,,
{8}6,1,4,2,8,5,7-3b[8:1],,
{8}1b,,2,5,4,7,1,1,
{12}6x,7,8,{12}2x,3,4,{8}5xqq6[8:6]/1x<6[8:2],,{24}1b,,,,,,
{8},,,,7,7h[8:3],,,
{8}5,,4x/8x,7x/3x,6x/2x,,,,
{8}1x,4,2,7x,4,6,2x,4,
{8}3,6x,4,5,2,2,8,8,
{8}3b,7,1,5b,2,6,4b,8,
{8}2,{24}6b,5x,4x,3x,2x,1x,8x,7x,,{8}4,4,6,6h[8:5],
{8},,,,
{16}2x,3x,{8}4xqq5[8:8],,,,,,,
{12},,,{8}6<3>6[8:20],,,,,,,,{24},,,,,
{24}E5,,C,,E1,,,,,,
{8},,,,,,,,
