&title=Virtue and Vice
&artist=Fear, and Loathing in Las Vegas
&first=0.199
&des=Let's Sing until our Voices Die
&lv_5=14
&inote_5=(145)
{1},,,,
{16}
3h[16:3],,,5,,,5h[16:3],,,6,,4,5,,3,,
7h[16:3],,,1,,,3,,3,4,,6,5,,7,5,
6h[16:3],,,4,,,4h[16:3],,,3,,5,4,,6,,
2h[16:3],,,8,,,6,,6,5,,3,4,,2,4,
3x,,,3x,5,,3x/7,,1,3x,,4,3x,,7,5,
6x,,,6x,4,,6x/2,,8,6x,,5,6x,,2,4,
3x,,,3x,7,,1x/8x,,2,6x,,5,6x,,4,3,
{16}6b,,2,4,,7,5,,45,,,8x/1xw5[8:1],{4},
{4}Cf/B3/B7,{16}8x,,2,4,3,,7h[8:1]/5,,1,,3h[8:1]/5,,
{16}4<7[8:1],2,,2,4,,{8}1-5[8:1],2-6[8:1],1,2,,
{4}1>4[8:1]/4<7[8:1],1/4-8[8:1],4-1[8:1]/7p3[8:1],47,
{16}2h[16:3]/8,,,4,3,,45,,6-2b[8:1],5,7,,{4}8b,
{16}8h[8:1]/4h[8:1],,,6h[8:1]/2h[8:1],,,{8}5-1[8:1]/3-5[8:1],,53,,8,
{16}7h[8:1]/1h[8:1],,,5h[8:1]/4h[8:1],,,{8}8q7[32:7]/2>7[32:7],,,,,
{8}1<6[8:1],5-1[8:1],1,5,{16}2h[8:1],,4,3,7,5,,,
{16}7h[16:3]/1,,,5,6,,54,,3b/6b,,1-5b[8:1],8,1,8,1,,
{16}
6,6h[8:1],,4,4h[8:1],,2,2h[8:1],,8v1-3[32:7],8,,,,,,
7,7h[8:1],,4,4h[8:1],,1,1h[8:1],,5,5,,Cf/B8/B1/B4/B5/E1/E5,,,,
2x,2h[8:1],,4,4h[8:1],,6,6h[8:1],,8-4b[32:3],8,,,,,,
3,24,,6,57,,4,4,{8}5,78,45,21,
{16}
3b/6b,,5<8[8:1],,2-4[8:1],,5,,2-6[8:1],,1,1,2,,8,,
7,5,,3V58[12:2]/4<7[12:2],,21,,,{8},,1,28,
{16}
6,,57,,2,1,,7-3[8:1]/8,,16,,3,,,1-3<4b[8:1],,
8,8,1-7<6b[8:1],,7,7,1,,5,5,,2,4,,18,,
{16}
6b/3b,,4-2[8:1],,4q8[8:1],,4-1[8:1],,,,,,7,,68,,
2,1,,3>8>3[32:9]/7<4<7[32:9],,26,,,,,,,,,8,,
{16}
17,,34,,6,5,7,,1-6b[8:1]/2-5b[8:1],,38,,12,,,,
47,,3,4,2,,15,,7bh[8:1]/8bh[8:1],,,2bh[8:1]/3bh[8:1],,,5b/6b,,
{1}4bV27[4:2]/8bV63[4:2],
{4}8>3b[8:1]/4<7b[8:1],,{16}4bh[8:1]/8bh[8:1],,,3bh[8:1]/6bh[8:1],,,1b/5b,,
{16}3b,4,3,6x,5,6,2x,4,2,7x,5,7,{24}1x,2,3,{8}4x/5x,
{16}6b,5,7,3x,4,2,7x,8,6,2x,1,3,{24}8x,7,6,{8}5x/4x,
{16}2b,4,3,7x,5,6,1x,3,2,8x,6,7,{24}1x-5[8:1],2,3,4x/5x,6,7,
{48}8b<1[16:9]*<7<6>5>4>3>2<1b[16:9],B1,Cf,B5,,,{8},{4},,,
{32}8-4[8:1]/2>5[8:1],7,6,5,{8},8/2-6[8:1],,8-3[8:1]*-5[8:1],,8<1[4:1],,
{8}1,1,,2v5[8:1]/8v5[8:1],37,28,,{32}4-8[8:1]/8,7,6,5,
{8},2-5[8:1]/4,1,8>3[8:1]/2,7,5w1b[8:1]/8,,B6/B5/E7/E5/E6,
{8},3x/4xw8[8:1],,B3/B4/E3/E5/E4,,6x/5x,4b/8b,,
{32}1-5[8:1]/7<4[8:1],2,3,4,{8},1/7-3[8:1],,1-6[8:1]*-4[8:1],,1>8[4:1],,
{8}8,8,,7v4[8:1]/1v4[8:1],62,71,,{32}5b<4b[4:1]/1,2,3,4,
{4}7bh[4:1],{8},6-2[8:1],,1w5b[8:1],,1b`A7/A3/Cf/B3/B7,
{8},8,17,{16}2,2,4,3,6,6,5,7,4,4,
{16}
8bh[8:1],,5,6,,,45,,1h[8:1],,4,3,,,36,,
8h[8:1],,5,6,,,27,,{8}1h[8:1],5,3b/7b,,
{16}
1bh[8:1],,3,2,,,54,,8h[8:1],,6,7,,,63,,
{16}2b/7b,,3,4,,6,5,,{8}4-8b[8:1]/5-1[8:1],36,{8},,
{32}
2b,3,4,5,8,7,6,5,2,3,4,5,8,7,6,5,
2,3,4,5,8,7,6,5,2,3,4,5,8,7,6,5,
1b,2,3,4,7,6,5,4,1,2,3,4,7,6,5,4,
1,2,3,4,7,6,5,4,1h[8:1],,,,,2xb/8xb,3xb/7xb,4xb/6xb,
{8}5xbpp4[8:3],,,1,1w5b[8:1],,A7/B7/Cf/B3/A3,,
{16}
8bh[8:1]/5bh[8:1],,,3bh[8:1]/6bh[8:1],,,1b/4b,,
7bh[8:1]/5bh[8:1],,,2bh[8:1]/4bh[8:1],,,1b/8b,,
{4}
2x>7[4:2]/7,7,8,8,
1x-5[8:1]/2,4,{8}A4/B4/E4f/B3/A3,2xbh[4:1]/6xbh[4:1],,,
{4}
7x<2[4:2]/2,2,1,1,
8x-4[8:1]/7,5,{8}A5/B5/E6f/B6/A6,7xbh[4:1]/3xbh[4:1],,,
{16}5x-1[8:1]/7,,,8,5,,6,,{8}A2/E3f/B2/B3/A3,4xbh[4:1]/1xbh[4:1],,,
{16}4x-8[8:1]/2,,,1,4,,3,,{8}A7/E7f/B7/B6/A6,5xbh[4:1]/8xbh[4:1],,,
{16}27,,,45,4-8[8:1]/5-1b[8:1],,36,,{8},,{32}1xb/8xb,2x/7x,3x/6x,4x/5x,{8},
{16}1b-5b[16:1],,,7b-4b[16:1],,,3b-8b[16:1],,,5b-1b[16:1],,,1b,,3bh[4:2],,
{4},{8},{32}1,8,7,6,
{8}1b/5b,2>5[8:1]/4-8[8:1],1,2<7[8:1]/4,,2-6[8:1]/6,5-8[8:1],2,
{8}5,1,{16}27,27,,4h[8:1]/5h[8:1],,,78,,12,,3,4,
{8}3,1-4[8:1]/5-1[8:1],6,5>2[8:1]/1<6[8:1],,5-1[8:1],,4,
{8}4b>6b[4:1],,4/A8f/B8/B7/E8/A7,,5b<3[4:1],,5/A1f/B1/B2/E2/A2,,
{8}4bw8b[8:1],,4,,26,4-1[8:1],5,7-4[8:1]/4,
{8}8,2-7[8:1]/7,3,5-2[8:1]*-8[8:1]/2,6,5,,37,
{16}1b/5,5,3,4,2,,65,,8b/4,4,6,5,7,,34,,
{8}1b>4[8:1],4b-8b[8:1],8b<5[8:1],5b,1xbw5b[8:1],,A1/B1/Cf/B5/A5,,
{8}8xb/4xb,7<4[8:1]/5-1[8:1],8,7>2[8:1]/5,,7-3[8:1]/3,4-1[8:1],7,
{8}4,8,{16}72,72,,5h[8:1]/4h[8:1],,,31,,86,,5,4,
{8}5b>7b[4:1],,5/A1f/B1/B2/E2/A2,,4b<2[4:1],,A8f/B8/B7/E8/A7/4,,
{8}5bw1b[8:1],,5,,{32}1b-5b[8:1]/8b-4[8:1],27,36,45,{8},Cf,,
{32}2b/8b,3,4,5,6,7,8,1,2,3,4,5,6,7,8,1,2,3,4,5,6,7,8,1,2,3,4,5,6,7,8,1,
{8}2b/Cf,,{16}1x/7x,,2,2,4,3,6,6,5,7,4,4,
{16}
8b,,63,,2,4,2,4,3,,72,,6,5,6,5,7,,18,,2,4,2,4,3,,7,,1b/5b,,,,
2b,,54,,6,5,7,5,8,,63,,2,4,3,4,1,,72,,5,3,7,1,{4}8b<1b[16:3],{48}E8,E7,E6,E5,E4,E3,
{8}E2,{16}Cf,,,3x/7x,,,
{28}
1x,5x,1x,5x,1x,5x,1x,5x,1x,5x,1x,5x,1x,5x,1x,5x,1x,5x,1x,5x,1x,5x,1x,5x,1x,5x,1x,5x,
1x,5x,1x,5x,1x,5x,1x,5x,1x,5x,1x,5x,1x,5x,
1x,5x,1x,5x,1xbp1b[28:9],5xbp5[28:8],1xb,5xb,1xb,5xb,1xb,5xb,,,,,,{56},{4},
{16}2b-6[8:1],6b,4b,8b,,,{16}7b>2[16:1],,,4b-1[16:1],,,5b-8[16:1],,,3b<6[16:1],,,
{16}7b,,7b,
