&title=夜明けと蛍
&artist=n-buna
&first=0.58
&des=Hoshi
&lv_5=12+
&inote_5=(80)
{4}C,C,C,C,C,C,C,C,
{4}C/B1,C/B2,C/B3,C/B4,C/B5,C/B6,{8}C/B7,1x,C/8x,1x,
{4}C/8b<5[4:6],C,C,C,C,C,C,C,
{4}C/1>4[4:6],C,C,C,C,C,C,C,
{8}C,8,C/7h[4:1],,C,6,C,8,C,7,C,6,C,8h[4:1],C,,
{8}C,4,C/5h[4:1],,C,6,C,3,C,1,C,2,C,8h[4:1],C,,
{8}C,4,C/3h[4:1],,C,2,C/3,1,C/3,2,C/1,3,C/2,4h[4:1],C,,
{8}C,8,C/1h[4:1],,C,2,C/6,7,C/1,4,C/3,6,Ch[4:1],,,1q4[4:6],
{8}C,1,C,5h[16:1],C,7,C,1,C,6,C,8,C,2,C,8p5[4:6],
{8}C,8,C,4h[16:1],C,2,C,8,C,3,C,1,C,7h[4:1],C,1p8[4:6],
||如果星星严格单手划,7h会锁右手,使左手出张到1去接星星头,右手接touch后左手开始划1p8,后续note就会很好接,如果右手开始划1p8会相当抽象。当然如果你提前处理并放置星星也是可以的,但内屏玩家可能会被后续的8号note惩罚
{8}C,1,C,2h[16:1],C,4,C,2,C,8,C,7,C,{16}1,,C/2,3,{8}4q5[4:6],
{8}C,4,C,7h[16:1],C,1,C,7,C,5,C,8,C,,Cf/B1/B2/B3/B4/B5/B6/B7/B8,,
{16}C/1b,,2,2,C/4,4,6,6,C/8,,,,
{32}C/5,,5,6,{16}7,7,C/8,8,2,2,C/6,6,4,4,C/3,3,7,8,C/1,,1,1,
{32}C/2,3,4,,{16}4,4,C/5,5,6,6,C/7,7,8,8,C/1,2,3,4,
{16}C/1w5[8:4],2,3,2,C/1b,,,,,,,,,,8h[8:15],,
{8}C,E2,C,E3,C,,C,B2/B3/E3,C,,C,B2/B3/E3,C,B4,C,B8,
{8}C/2>7[8:5],B1/B8/E1,C,B2/B3/E3,C,B4/B5,C,B4/B5,C/7<2[8:5],,C,,C,,C/B5/B6/E6,B7/B8/E8,
{4}C/1-4[8:5],C,C,C,
{4}Ch[4:7],B1/B8,B2/B7,B3/B6,
{4}B4/B5,B3/B6,B2/B7,B1/B8,
{4}Ch[4:7],B1/B5,B2/B6,B3/B7,
{4}B4/B8,B3/B7,B2/B6,{8}B1/B5,1h[4:7],
{8}Ch[4:7],B7,B8,B1,,B7,B1,B7,
{8}B1,B8,B7,B1,,B8,{16}B1,B2,B3,,{8}2x<7[8:4],,,,,,,1-5[8:1]/7,
{8}C,7<3[6:1]/1,C,1/7,C,1,C,2,C/E8,E2,C/E6,E4,C,{16}8,,C/2,3,4/5,,
{8}C,4>1[8:1]*-2[12:1]/5,C,4,C,5<8[8:1]*-7[12:1]/4,C,5,C,4p8[16:3]/5,C,4,C,,C,8-4[8:1],
{8}C,2>5[8:1]/8,C,2,C,1p4[8:1],C,1/8q5[8:1],C,8,C,8qq4[3:1],C,8,{16}C,E2,E3,,
{8}C,1V35[8:1]/8V24[32:3],C,8,C,8V64[8:1]/1V75[32:3],C,1,C,6<3[16:3]/5,C,6,C,,Cf/B1/B2/B3/B4/B5/B6/B7/B8,,
{8}C,3/7,C,2/6,C,,{16}C/4,4,3,3,C/2,2,1,,C/6,6,7,7,C/8,,6,8,C/2,3,4,,
{16}C/4,3,2,1,C/3,2,1,8,C/2,1,8,7,C/1,8,7,6,C/8,7,6,5,C/7,6,5,4b,C,4,,4h[32:1],C,,4>4[4:7]*>8[8:7],,
{8}C,,C,,C,,C,,C,,C,,C,,C,E1,
{4}Ch[8:4],{8}B8,B1,,,{4}1>4[8:1]*-4[8:1],1<6[8:1]*-6[8:1],1w5[8:1],1,2b/7b,
E
