&title=Line 4 Ruin
&artist=Ryu☆
&first=0.147
&lv_5=13
&des_5=白-ster
&inote_5=
(141){4},{8}4/6,5,{16}3b,5,,4,,6b,{8}4,
5,3,5/3,4,{16}6b,4,,5,,3b,{8}5,
4,6,3/7,7,{16}2,1,,8,,1,{8}8,
2,8,1/7,8,{16}7,8,,1,,8,{8}2,
7,8,1/2,7,{16}1,7,,8,,2,{8}1,
7/1,2/8,1,7,{16}2,4,,8,6,8,{8}6,
8/6,7,6/3,2,{16}6,4,,4,,4,{8}6,
3/6,4/5,6/3,2/7,{16}8,1,,7/2,,6,{8}3,
{4}4,{8}5/3,4,{16}5,3,,4,,4,{8}6,
5,6/4,5,6/4,{16}5,3,,3,,3,{8}5,
4,3/5,4,5/3,{16}4,6,,5,,6,{8}4,
5,5,6/4,5,{16}5,3,,4,,3,{8}5,
4,3/5,4,6/5,{16}5,3,,4,,3,{8}5,
4/3,6,5/4,3,{16}3,5,,5,4,5,{8}4,
5/3,5/3,6/4,5,{16}5,3,,3,,3,{8}4,
3/5,4,5/6,5,{16}5,3,,4,,3,{8}5,
6/4,6h[2:1]/4h[4:3],,,,,,5h[4:1],
{4},6/3,,5b/4b,
,{16}5,4,5,3,6,2,7,1,{4}8,
,{8}5/3,2,3/5,6,5/3,4,
,5/3,{4}5/3-7b[8:1],3b,8/6,
,{8}7/3,2,7/1,6/3,,5/4,
,6/3,{4}6/3q6b[8:3],{2}3b,
{8}7bh[4:1]/5bh[4:1],{4},{8}6,7/5,8/4,,7/3,
,6,{4}6,{16}5,2,{8}5,{16}4,6,{8}4,
6/3,3/6,{4}4h[1:1]/5h[8:3],{8},,,5h[4:1],
{4},5h[4:1],4h[4:1],6h[4:1],
4h[4:1],7h[8:3],{8},3h[4:1],,8h[4:1],
,2h[4:1],,7h[8:3],{4},3h[4:1],
{8}6,6/3,{4}3h[8:7],{8},5h[4:1],,,,4h[8:3],
{4},3h[4:1],7h[4:1],
{16}2h[4:1],{4},{16}8,{8},{16}7,1,{8},{16}6,1,6,1,
7,1,8,1,{8}8,8/2,{16}1,7,,8,{8}2h[8:1],1,
{4},5/4-1[8:1],4/5-8[8:1],5/4>2[8:1],
4/5-8[8:1],5/4h[8:1],{8}5,4,6/3,4,
{4}5/3-7[8:1],3/5-1[8:1],{8}5/3h[8:1],{4},{8}6/5,
2,3/4,{4}7,{8}5,4/3,{4},6/5,
2/4,3/5,4/6,
5/7,{8}6-1[8:1],3,6,3,,2/4,
3,2/4,3,3,3,3,{4}3,
{8}1,8/6,,6/8,7,8/6,1,1,
{4}1/7b,8/2-5[8:1],2,1/7-4[8:1],
7,{8}8/2-5[8:1],8,2/8,8,,1/7,
{4}7/1,2/8-5[8:1],{8}8,1,,7/2,
3,6/4,5,6/4,,5/3,4,5/3,
{4}4,6/2-6[8:1],2b/6,5/7-4[8:1],
8/7b,{8}7/2,6,3/5,4,5/3,4,
6,3,7,8/6,7,1/5,,6/1,
7,8/3,2,1/6,5,4/7,{4}3b,
2b/4b,{8}5,4,{16}8,6,,7,,3,{8}1,
2,5,4,5,{16}1,3,,2,,6,{8}8,
7,4,6,3,{16}5,3,,6,,7,{8}1,
4,5,3,6,{16}4,6,,3,,2,{8}8,
4,5,6/4,5/3,{16}1,7,,8,,2,{8}4,
3,5,4,5,{16}3,6,,2,,1,{8}7,
8,7,1,8,{16}3,5,,4,,7,{8}1,
8,2,7,3,{16}7,5,,2,,6,{8}8,
7b/1b,8b/2b,{4}6/3h[8:1],{16}5,4,,6,,3,{8}4,
2,5,4,6,{16}3,5,,4,,6,{8}5,
3,6,4,5,{16}2,4,,3,,7,{8}5,
6,4,5,4,{16}7,5,,6,,2,{8}4,
3,5,6/3,5/4,{16}2,7,,6/3,,7,{8}2,
8/1,7/2,6,3,{16}5,4,,3,6,3,{8}6,
{4}4/5h[8:1],{8}4/6,5,{16}3b,5,,4,,6b,{8}4,
5,3,5/3,4,{16}6b,4,,5,,3b,{8}5<6-1[8:3],
{1}4,
E
&lv_6=13+
&des_6=白-ster
&inote_6=
(141){4},{8}5/3,4/6,{16}3/4,4/3,,2/5,,4/7,{8}4/7v4[8:1],
1h[8:1],7,2,3/5,{16}4/6,4/6,,3,4,2,{8}5-1[8:1],
3/7,1/5,3,2/8,{16}1,7,1,8,2,2,{8}8-5[8:1],
1/4,5/8,4,6/3,{16}7/8,8/7,,2,1,2,{8}8-4[8:1],
7/1,8,2,3/5,{16}6,3,5,4,7,7,{8}2-4[8:1],
1-5[8:1],2-6[8:1],1,2,{16}7,7,,6,8,6,{8}8-4[8:1],
7/1,8/3,1,2/4,{16}3,4,2,5,1,1,{8}7-3[8:1],
8/2,7/5,4,2/5,{16}6,5,7,4,8<5[8:1],8,{8}2>5[8:1],
8b,2b,7,6/3,{16}5/2,2/5,,8,2-5[8:1],2/1,{8}1-6[8:1],
2b,1b,3,4/7,{16}6,5,7,4,6-8[8:1],3,{8}5-3[8:1],
6,5,6,5/2,{16}3,4,2,5,3-1[8:1],6,{8}4-6[8:1],
3,4,2,1/7,{16}8/6,8/6,,5h[16:1],3-1[8:1],5,3-5[8:1],5,
{8}3b,3b,8,7/4,{16}5,5/6,{8}6,{16}7-3[8:1],3,{8}8-2[8:1],
7,8,3,5/3,{16}4,6,4,5,3-1[8:1],5,{8}3-5[8:1],
3,3,2,3/6,{16}5,4,6,3,5-8[8:1],5/4,{8}4-1[8:1],
5b,4b,7-5[8:1],7/2,{16}7,1,,1,4,1,{8}5,
7/3,5h[8:3]/4h[8:1],{4},{8}3h[8:1],4-7[8:1],,4/5-2[8:1],
,5,4-8[8:1],5-1[8:1],4>4b[8:3],5,{4}4b,
,{16}6b,3b,8b-4b[8:1],2b,6b,4b,{8}8b,{4}2h[8:1],
4h[8:1],{8}6-1[8:1],2,6/3,2-5[8:1],,5/2qq6[4:1],
,2/6,{4}5-2b[8:1],{2}5b/4>4[8:3],
{4},{8}1/6,{16}3,4,{8}3,2/7-5[8:1],,7pp4[4:1],
,7,{4}2-6b[8:1],2b/4,{16}8-4b[8:1],1h[16:1],,8h[16:1],
{4},{8}3-8[8:1],5-8[8:1],3,5-2[8:1],,5q8[4:1],
,5b,{4}3h[8:1],{16}8,1,{8}8,{16}3-8[8:1],3/5,{8}5-1[8:1],
3b,5b,{4}3,{8},2-5[8:1],,2/7-4[8:1],
,7,{4}2,8-5[8:1],1/8,
2-5[8:1],2,{8}8,1-4[8:1]*-6[8:1],,1,
,5-8[8:1],,5,{4}3-1[8:1],{8}3,6,
8b,2b,{4}4b,{8},8-3[8:1],,8-5[8:1],
,8b,{4},2-5[8:1],8-3[8:1],
6-1[8:1],{16}4/6,{8},{16}2,8,{8},{16}3,8,3,8,2,
8,1,8,1,,1/7,,8,{8}2,{16}1,7h[8:1],,8,{8},,,7-4[8:1],
1,2-5[8:1],3,7-3[8:1],6,
,1>4[8:1],7b-3[8:1],1b-5[8:1],7b,1b,,6/4,
{4}1/7,{8}2-5[8:1],3/8,2,7-5[8:1],8/1-3[8:1],7b-3[8:1],
1b-5[8:1],7b,{4}1b,{8},5/4,1/2-4[8:1],2/1,
{4}2b,8-4[8:1],6-2[8:1],4-8[8:1],
2,{8}1b-6[8:1],8b-3[8:1],1b,8b,,2,
3/6,2,3/8,2/7,1/6,8/5,7-4[8:1],2-5[8:1],
7,2,8-4[8:1],1-5[8:1],8,1,7-3[8:1],6/4,
7b/3b,2,5/1-5[8:1],8,7-3[8:1],6,5-1[8:1],4,
3-8[8:1],3<5[8:1],3b-6[8:1],3b>1[8:1],3b,3b,,{32}7-3[8:1],6,{16}5,
{32}2-6[8:1],3,{16}4,{8}7,{4}2,{8}7-4[8:1],8-3[8:1],7<5[8:1],8>2[8:1],
7b,8b,{4}7b-3[8:1],{8}7,1,2-6[8:1],1/3,
{4}2h[8:1],{8}1-5[8:1],5>2[8:1],{4}1b,{8}8-4[8:1],4<7[8:1],
{4}8b,{8}1-6[8:1],1-4[8:1],1b,1b,,7/2,
6v3[8:1]/3v6[8:1],7/2,{4}6/3,{32}7-3[8:1],6,{16}5,{32}2-6[8:1],3,{16}4,{8}7,2,
8-4[8:1],7-3[8:1],8,7,8,1,{4}1w5[8:1],
1,{8}3/8,1/6,{16}5/4,4/5,,6,3-8[8:1],8,{8}1-6[8:1],
3b,1b,2,7/4,{16}1/2,1/2,,8,3-5[8:1],6,{8}1-3[8:1],
3b,1b,6,8/3,{16}4/5,5/4,,3,6-1[8:1],1,{8}8-3[8:1],
6b,8b,7,2/5,{16}8/7,8/7,,1,6-4[8:1],3,{8}8-6[8:1],
6b,8b,2,3/5,{16}6,3,7,2,5-2[8:1],1,{8}6-1[8:1],
5b,6b,3,8/4,{16}7,3,6,2,8-4[8:1],1,{8}7-3[8:1],
8b,7b,1,2/4,{16}5,1,7,3,5-2[8:1],4,{8}6-1[8:1],
5b,6b,3,2/8,{16}7,3,5,2,6-8[8:1],4,{8}6-4[8:1],
6b,6b,{4}7h[8:3],{8},2-4[8:1],,2/8-2[8:1],
,8/6,{4},8/3-5[8:1],3/7-1[8:1],
7/3-6[8:1],3/7,{8},2-4[8:1],,1-5[8:1],
,8-6-1-5-2-4>3[8:11],,8,,,,,,7-3[8:3],
,7,,,,2,
5,6,3,7/1,8/2,{16}6,4,5,3,6,3,
{8}5,7/2,8/1-4[8:1],3/6,{16}1,7,,6,3,5,{8}4,
7/1,2/6,3,5,{16}4,4,,4,4,4,4,4,
{1}4b,
E
