&title=potatoになっていく【改】
&artist=Neru feat. 鏡音リン、鏡音レン
&first=0
&des_5=星見カエデ@MMFC6
&lv_5=13+
&des=星見カエデ@MMFC6
&inote_5=(116)
{1},
{8}5h[8:1],,5h[8:1],,5h[8:1],,5h[8:1],,
{8}4h[8:1],,4h[8:1],,4h[8:1],,4h[8:1],,
{8}5h[8:1],,3h[8:1],,6h[8:1],,4h[8:1],,
{4}7b/E3,2b/E7,8b/Cf,
{24},,2,5,,3,
{4}4-1[12:1]*-7[12:1],4,
{12}8xq4[12:1],1,
{24},68,,,,6x,,5x,
{8}7V51[6:1],1,72,3,
{24}4xv3[12:1],,4,8xv7[12:1],,8,,,,,,,
{4}5x-8[12:1]*-2[12:1],5,
{12}1p5[12:1],8,
{24},31,,,,3x,,5x,
{8}4-2[12:1],2x/8x-6[12:1],6x/4x,8x,
{12}5w1[12:1],5,
{24},5b,,,,,,,
{4}8-4[12:1]*-3[12:1],8,
{12}6xq3[12:1],4,
{24},36,,,,2x,,2x,
{8}8x-4-8[6:1],3x/4x,8/1,3,
{24}1xv3[12:1],,1,5xv7[12:1],,5,,,,,,,
{4}1x-5[12:1]*-6[12:1],1,
{12}3xp6[12:1],5,
{24},63,,,,7x,,7x,4,,4,6,,6,3,,3,5,,5,4hx[12:1],,,3hx[12:1],,,2hx[12:1],,,1hx[12:1],,,
{2}2>4[8:1]/8h[4:1],5<7[8:1]/4h[4:1],
{2}4>2[8:1]/5h[4:1],8^6[8:1]/1^3[8:1],
{8}5pp6[16:3]*qq4[16:3],5,,,1pp1[16:3],1,,,
{8}7p5[4:1],5,4,3,2x-4[8:1]*-8[8:1],,,,
{32}6h[8:1],,,,,,,,6hx[8:1]/B4,E5,,,,,,,
{32}6h[8:1],,,,,,,,6hx[8:1]/B1,B2,,,,,,,
{32}6h[8:1],,,,,,,,6hx[8:1]/B4,E5,,,,,,,
{32}7h[8:1],,,,,,,,8hx[8:1]/B2,B3,,,,,,,
{32}1h[8:1]/3h[8:1],,,,,,,,3hx[8:1]/B5,E5,,,,,,,
{32}3h[8:1]/4h[8:1],,,,,,,,3hx[8:1]/B8,B7,,,,,,,
{32}3h[8:1]/5h[8:1],,,,,,,,
{4}4hx[8:1]/8>3[8:1],5hx[8:1]/8<5[8:1],3hx[8:1]/8pp5b[4:1],8b/7b,,
{32}6/5x,,,,7,,,,B5/3,E5,,,1,,,,
{32}6/5x,,,,7,,,,B5/3,E5,,,1,,,,
{32}3/4x,,,,2,,,,B4/6h[12:1],E5,,,7h[12:1],,,,
{8}8bxqq5qq4b[16:7]/1bx,5bx/4bx,,,,A4f/E5/B4/E4,,,
{8}1b>5q4<7b[16:7]/8b,4b/5b,,,,A7f/E8/B7/E7,,,
{24}64,,,7hx[32:3],,,3/5x,,,2hx[32:3],,,6/5x,,,8hx[32:3],,,3/4x,,,1hx[32:3],,,
{24}8,7,6,5x/3x,,,1,2,3,4x/6x,,,7x,,5,2x,,4,8,7,6,54,3,2,
{4}1-7z3-5b[8:3],,,
{24}2x,,2,6x,,6,1x>3[12:1],,1,5x<7[12:1],,5,1q5b[12:1],,,5,,,1,,,,,,
{24}8x,,8,4x,,4,7x-1[12:1],,7,3x-5[12:1],,3,7-3b[12:1],,,3,,,7,,,,,,
{8}2b-6-4b[6:1]/6,4b/3b,2b/6,,7-4-8[6:1]/3,54,73,,
{24}2,,2,4,,4,5,,5,7,,7,8qq7^8[8:1]*qq7^8[8:1],,,2x/1x,,,87,,,,,,
{24}5x,,6,4x,,3,5x^7[12:1],,4,8x^3[12:1],,1,5p3[6:1],,,8,,,5,,,,,,
{24}2x,,3,6x,,7,1x^3[12:1],,8,4x^7[12:1],,5,1V73[6:1],,,4,,,1,,,,,,
{8}7bV58b[6:1]/1,4b/3b,7b/2,,3V51[6:1]/7,65,38,,
{24}7,,7,5,,5,4,,4,2,,2,1xpp2^1b[8:1],,,7x/8x,,,12,,,,,,
{24}7x,,8,6x,,5,
{8}7V51[6:1],65,74,3,8/2-6[12:1],43,26,
{24}7x,,5x,1,,2,4,,3,7,,1,8w4b[12:1],,,62,,,8,,,
{24},,,3x,,4,
{8}2V48[6:1],34,25,6,1/7-3[12:1],56,7/1^3[12:1],
{24}6,,6,1x-5[12:1],,,5,,5,1x^7[12:1],,,
{24}4,,4,1xp4b[12:1],,,6,,6,1x,,,5x,6x,7x,
{8}8bx<5[12:1],1bx>4[12:1],8bx-4[12:1],1bx-5[12:1],8b-6[12:1],1x-3[12:1],8xp1b[6:1],1x,8b<1[8:11]*<1[8:11],,Cf,,,,,,,,,,,,
{24},,2,5,,3,
{4}4-1[12:1]*-7b[12:1],4b,
{12}1V35[8:1],2,
{24},7,1x/7x,,,6x,,4x,
{8}7^5-1[6:1],65,72,3,
{24}4-6v3[8:1],,4,8-2v7[8:1],,8,,,,,,,
{4}5-8[12:1]*-2b[12:1],5b,
{12}8V64[8:1],7,
{24},2,2x/8x,,,3x,,5x,
{8}2-5[12:1],4/6-1[12:1],82,6,
{12}4w8b[12:1],53,
{24},4b,,,,,,,
{4}8-3b[12:1]/4-7[12:1],8b/4b,
{12}1<6b[12:1],8,
{24},2,2x/1x,,,2x,,2x,
{8}8-4-6[6:1],24,81,2,
{24}3qq2[8:1],,3,7qq6[8:1],,7,,,,,,,
{4}1xv4[12:1]*v6b[12:1],1b,
{12}5>2b[12:1],4,
{24},6,5x/6x,,,7x,,8x,
{8}1x-5-7[6:1],34,1x/2x,3,
{24}8p4b[12:1]/4p8[12:1],,1x/5x,,,8bx/4bx,,,,,,,
{8}7-2b[12:1]*-4[12:1],,,,
{24}E7,,E4,,,E1f,,
E
