&title=Beenden
&artist=隣の庭は青い(庭師+Aoi)
&first=0.035
&des=Caerulea
&des_5=Caerulea
&lv_5=14+
&inote_5=(202){4},{8},,,,,,,,,,,,,,,,,,6,
4,{4}5<8b[8:1],
{1}Cf/5V31V74-2[2:3],
,Cf/1V75V38-6[2:3],
{4},,,,3-1[8:1],
4h[2:1],{2}3-5[8:1],
{4}6-8[8:1],5h[2:1],{2}6-4[8:1],
{8}3h[8:1],5h[8:1],4h[8:1],6h[4:1],,8>5[8:3],{16},,,,5,
6,7,8,1,2,3,4,1,8,7,6,5,4,3,2,
{4}1/6h[4:1],{8}2,6<1[4:1],,6,,,{4}3<6[4:1],
{8}3,7h[4:1],,,,,{4}3h[4:1],
{8}7,3>8[4:1],,3,,,{4}6>3[4:1],
{8}6,2h[4:1],,,,,1/8,
7,6,{16}5,6,5,6,{8}4,5,2,
3/4,2,1,{16}8,1,8,1,{8}8,{4}C,
{8}3h[8:1],{16}5,4,{8}7,3h[8:1],{16}1,2,{8}7,6h[8:1],{16}4,5,
{8}2,6h[8:1],{16}8,7,{8}2,{16}1/5,2/6,3/7,4/8,{4}5/1-5[8:1],
7-4[8:1],3-8[8:1],{2}6p4[4:1],
{4}1h[4:1],{8}4,4,2,6,{4}4>1[8:1],
7h[4:1],8V25[4:1],{2}5V31[4:1],
{8}7h[4:1],8,8,7h[4:1],4,4,{4}1h[4:1],
{24}2x,3,4,8x,7,6,1x,2,3,7x,6,5,{2}4-2q6[4:1],
{8}7,7,4,4,{16}6,5,7,5,6,4,6,5,
{1}7>5[4:3],
{16},,,,4,5,4,5,4,5,4,5,{8}E4,E6,
2-5[8:1],7,2-8[8:1],{16}8,7,{4}6/2>5[8:1],{8}2,{16}6,7,
{4}8p4[8:1],2>5[8:1],{2}7-4[8:1]/2-7[8:1],
{4}5xh[4:3],A6/B6,E8/D8,B1/A1,
{16}3,4,5,6,7,8,1,2,4,3,5,2,6,1,7,8,
{4}6b-8p4[8:3],4,3,2h[4:1],
4h[4:1],{8}3,3,5,5,{16}3,4,{8}3,
{16}2/5,6,7,8,1,2,3,4,5/2,1,8,7,6,5,4,3,
{4}2qq7[2:1],,,8xh[4:1],
{8}4-8[8:1],4,{16}1,8,7,6,{8}5,2-6[8:1],,5h[4:1],
{16},,7,8,1,2,3,4,{8}7-5[8:1],5,{4}7,
{8}1h[4:1],5,3h[4:1],6V84[4:1],,4-7[8:1],{16},,,,,,,,3,
5,3,5,4p7V13[8:3],6,4,6,,,{8}5h[4:1],
,,,2/6,{16}3,5,{8}3,{16}6h[8:1]/4h[8:1],,,6h[8:1]/5h[8:1],
,,{8}4/7h[4:1],{16},,,,3h[8:1]/5h[8:1],,,3h[8:1]/4h[8:1],,,{8}5/2h[4:1],
{16}6h[8:1],,,7h[8:1],,,{8}8h[8:1],{16}2h[8:1],,,3h[8:1],,,{8}4h[8:1],
{2}Cf,{12}7,6,5,4,3,2,
{4}1/8q1[8:13],4xh[8:1],4xh[8:1],4xh[8:1],
4h[8:1],4h[8:1],{2}4-8[8:1],
{4}Cf,{8}3h[4:1],{16}4,5,{8}6-3[8:1],,,2,
{16},2,,,{8}2,{16}4,5,6,3,2,1,7/8,,,7/8,
,,{8}8/7,{4}6h[8:1]/1h[8:1],{16}2,7,2,7,3,6,3,6,
{8}4h[8:1],{16}5,3h[8:1],,4,{8}2h[8:1],{2}3pp6[2:1],
{32},,,,,,,,D6,A5,D5,A4,D4,A3,D3,A2,{2}D2/Cf,
{4}2/7,{16}1,8,1,8,2,7,1,8,2,7,1,8,
{2}2pp8[4:3],{8}7b,7b,7b,7b,
{16},,6,5,{8}4,{16}1,2,{4}3,1/6-2[8:1],
3/6,{8}5,{16}1,8,{8}7,{16}4,3,{8}2,6,
{16}1,5,1,5,2,6,2,6,B6,B2,B5,B3,{4}C,
B7/B8/B1,{8}4,{16}6,5,{8}7h[8:1],{16}2,6,3,5,{8}4h[8:1],
{4}6<1[8:1],2,{16}3,5,,4,{8}6,{16}5,7,
4,,,4h[16:3]/6h[16:3],,,,,5,,,5h[16:3]/3h[16:3],,,,,2h[8:1]/5h[8:1],
,,4h[8:1]/2h[8:1],,,{8}2h[8:1]/3h[8:1],{16},,,,1,2,1,2,
8,,,8,,,{8}8,{16}1,1,1,1,1z5[8:1]*s5[8:1],1,1,1,
{4}1,4bx-8[8:1],{2}7V51-3[8:3],
{1}Cf,
{4},,,,,,,,,,,,3h[4:3],
4,2,1,
8h[4:3],7,1,2,
{1}3pp8[8:5]/7pp4[8:5],
{4}C,{16},,,,,,,,7,6,5,4,
{8}2-6[8:1],2,{16}5,6,7,8,{4}1h[4:1],{8}2,8/3-8[8:1],
,,5-1[8:1],5,{16}8,1,2,3,4/8,7,6,5,
{4}4/1-6[8:1],{8}1,4<7[8:1],,4/8,{16}1,2,3,4,
{4}5/8-3[8:1],8/5>2[8:1],5,{16}1,8,7,6,
{4}5/2,{16}1,2,3,8,1,2,7,8,1,2,{8}3,
{16}8,7,6,1,8,7,2,1,8,7,6,5,1,2,3,4,
{4}7-4[8:1],{8}7/1,3<6[8:1],{16},,3/6-2[8:1]*-1[8:1],7,{4}8,
,3h[4:1],{16}6,4,6,4,5,3,5,3,
{8}4-8[8:1],2,4,1-5[8:1],6,1,8,8h[4:1],
{16},,,,4,7,4,7,3,6,3,6,2,5,2,5,
{4}1<6[8:1],{8}1,5w1[8:1],,5<4b[8:7],,,,,,,,,,,{1}E7h[8:1]/E3h[8:1]/Ch[8:1]/B6h[8:1]/B2h[8:1]/B7h[8:1]/B3h[8:1],
{16}1-5-1[4:1],8,{8}1,7,6-2-8[4:1],,8<5[8:1],,,{4}3-8[8:1],
3/6-1[8:1],{8}6,{16}2-6[8:1],3,{8}4,7<6-4[8:1],
,7/3-1<8[8:1],,3,5-1[8:1],7,{4}5,
2h[4:1],{16}3,4,5,6,{8}3-8[8:1]/7-3[8:1],3/7,{16},,,,8x,
1,2,3,4/5,6,7,8,{8}1/2,3/8,{4}7/4h[4:1],
6-1[8:1],6/3-8[8:1],{8}3,{16}7-3[8:1],6,{8}5,2>3-5[8:1],
,2/6-8>1[8:1],,6,,3-8[8:1],3,{16}7x-3[8:1],6,
{8}5,{16}8x,1,{4}2h[4:1],{16}8,7,6,5,{8}4,{16}1,2,
3,4,2,3,4,5,{8}1x,{16}7,8,{8}7,{4}6xh[8:1]/1xh[8:1],
{8}5,{16}3,4,{4}2h[8:1],{16}1h[8:1]/5h[8:1],,,2h[8:1]/6h[8:1],,,{8}3/7,
8h[8:1],{16}3,7h[8:1],,2,{8}6h[8:1],{16}1h[8:1],,,8/5,,,{8}8/6,
{24}7/8p3[8:1]*q5[8:1],6/1,2/5,4/3,,,,,,,,,{8}1-6[8:1],8,1,5h[4:1],
{16},,7-4[8:1],8,1,2,{8}7/3-8[8:1],,3,,4h[4:1]/5h[4:1],
{32},,,,,3/6,2/7,1/8,,,,,,,,,{8}2h[4:1]/1-5-7[4:1],,,3,
{4}4h[4:1],{8}8,2h[4:1],,5,4,{16}7/1-5[8:1],6/2,
{8}3/5-1[8:1],1,7,6,7>2[8:1],2,7,4v7[8:1]*v1[8:1],
{24},,,4,B4,Cf,{4}B7/B1,{8}2,3h[8:7],,6,
{1}7h[2:1],
,,,{32}1b,
2,3,4,1b,8,7,6,1b,2,3,4,1b,8,7,6,{8}1bxh[2:3],{24}5,6,7,{12}8,{24}2,3,4,5,
6,7,{12}8,{24}2,3,4,5,6,7,{12}8,{24}2,3,4,5,6,7,{4}8-4[8:1],
8b,{16}2,3,4/5,6,7,2,3,4/5,6,7,{8}8-3[8:1],
,,{4}5>2[8:1]*<8[8:1],A5f/E6/E5,1-5[8:1],
1/8h[4:1],{12}4,6,3,{4}5<8[4:1],{12}1,2,3,
{4}4,{12}1,2,1,{16}3,8,4,6,{12}1,7,8,
{16}6,1,5,3,{8}4,3-1[8:1],5,3,{4}4,
{8}7<4[8:1],4-8[8:1],{4}7,{8}2-5[8:1],1,{4}2,
{16}8,7,6,5,1,8,7,6,2,1,8,7,6,5,{8}4,
{16}2,6,3,7,4,8,5,1,{24}6,2,6,2,6,2,{32}5/1,4/8,3/7,2/6,1/5,8,7,6,
{2}1>1>4[2:9]/5<4b[2:9],Cf,
{1},,,,{16}8,
2,8,2,8,2,8,2,7,1,7,1,7s3[8:1],1,7,1,
{1}7,
E
