&title=アザレアの亡霊
&artist=トーマ feat.初音ミク
&first=0.555
&des=Kurage
&lv_5=14
&inote_5=(170)
{4}2h[8:15],,4-1[4:2],,,,8,{8},6,
{4}6h[8:13],,8-5[4:2],,,,{8},4,35,,
{8}2>6[16:5],,,8,8-5[4:1],,,,{16}4,,,4,,,5,,6-8[8:1]/4-2[8:1],,,,{4},
{8}7<3[16:5],,,1,1q4[8:3],,5h[8:9],,,,,4h[8:1],,4h[8:1],,4,
{16}
3b/6b,,7,5,7,,8h[8:1],,2,1,3,,34,,5,,
6/2h[16:3],,,8,8,,4h[8:1],,1-4[8:1],,28,,1,,,,
63,,2,4,2,,1h[8:1],,7,8,6,,65,,4,,
3/7h[16:3],,,1,1,,5h[8:1],,8-5[8:1],,71,,8,,,,
{12}
3b,4,3,6,5,6,3,4,3,6,5,6,2b,1,3,7,8,6,2,1,3,7,8,6,
3b,4,1,6,5,8,3,4,1,6,5,8,3b,5,1,6,4,8,3,5,1,
{8}6h[4:9],,
5,5,4,,4,,3,,3,,2,,2-4[8:1],2,,,
5-1[8:1],,7-5[8:1],,3,,4,3>8[8:1]/5,,7,7,,15,{16}2,4,{8}3h[4:9],,
4,4,5,,5,,6,,6,,7,,7-5[8:1],7,,,
4-8[8:1],,2,2,6,{16}4,5,4,5,4,5,
3b/6b,,,1b/8b,,,2b/7b,,4>1[8:1]/5<8[8:1],,,,{4}4b/5b,
{16}2,6,2,4,2,6,2h[8:1],,8,2,8,4,8,6,8h[8:1],,
{8}4,35,6,57,8h[8:1],{16}2-6[8:1],1,2,1,2,,
{8},7V58[4:1]/8,,4,{16}2,,2,1,,1,3,,
3b/6b,,,1b/8b,,,2b/7b,,4>1[8:1]/5<8[8:1],,,,{4}4b/5b,
{16}7,3,7,5,7,3,7h[8:1],,1,7,1,5,1,3,1h[8:1],,
{8}5,64,3,42,1h[8:1],{16}7-3[8:1],8,7,8,7,,
{8},2V41[4:1]/1,,5,{16}7,,7,8,,8,6,,
3b/6b,,3,4,2,6,5,7,1bw5[8:1],,,,{4},
{8}7b/3qq4[8:3],,,5,5-8[8:1],,5,,
{8}2b/6pp5[8:3],,,4,4,4,36,,
{16}8b/1b,,,7,5,,{8}4/5-8[8:1],,3-6[8:1],,1,
{16}1b,,,28,,,3h[8:3]/7h[4:2],,{8},,,,
{16}6b/5b<8[8:1],,4,5,3-5[8:1],,2,1,3-7[8:1],,7-1[8:1],,3,,5,,
,,2/6-4[8:1],,4-8[8:1]/8,,6,,8,,2h[4:1],,,,8,8,
1<6[8:1],,2,1,3qq4[16:5],,4,,35,,,,7,,7,,
6/5-8[8:1],,4,5,3,,2h[8:1],,6>3[8:1],,{24}1,8,7,{16}6,,,,
2/4>1[8:1],,5,4,6-4[8:1],,7,8,6-2[8:1],,2-8[8:1],,6,,4,,
,,7/3-5[8:1],,5-1[8:1]/1,,3,,1,,7h[4:1],,,,8,8,
1>4[8:1]/7,,8,1,7<4[8:1],,8,,5-1[8:1]/7,,3-6[8:1],,5,,3,,
,,7,7,8-6[8:1],,1,8,2-4[8:1],,1-5[8:1],,2,,1,,
{8}3bqq4[8:3],,4,4,5pp4[8:3],,3>8[8:1],,
3b-7[8:1],,3b<6[8:1],,3b,,81,,
6h[4:1],5,4,3,2h[4:1],4,5,6,
6b/4b,{16},5,5,,37,,{8}2s6[32:5]/8z4[32:5],1,,,
{16}
7b/3h[16:3],,,4,3<6[8:1],,12,,8-3[8:1]*-4[8:1],,,,8,,,,
2b/6h[16:3],,,5,6>3[8:1],,87,,1-6[8:1]*-5[8:1],,2,,1,,,,
{8}3b/7b,,65,65,34,34,57,57,
8-4[8:1]/1-5[8:1],,8b>3[8:1]/1b<6[8:1],,8b-5[8:1]/1b-4[8:1],,8b/1b,,
3pp6[4:3]/7b,,,1,1,,,7,7h[4:1],,5h[4:1],,3h[4:1],,1h[4:1],,
{12}7,8,7,2,1,2,4,3,4,5,6,5,7,3,1,5,7,3,1-5[8:1],1,1,,,,
{16}2b-4[8:1]/6,,,1,2,,7,,6/5-1[8:1],,,7,5<8[8:1]*-8[8:1],,,,
{8}5b>2[8:1]*-2[8:1],,5b,,{12}1,1,7,7,3,3,
{4}5bpp6[4:15]*qq4[4:7],,,,,,,,,,,,5h[8:23],,,,,,,,1h[8:7],,,,
{8}1b/5b,1b-5[8:1]/5b-2[8:1],,1b>4[8:1]/5b<8[8:1],,,,3b/7b-3[8:1],
,1,1,28,{16}3,4,2,5,4,7,5,6,
1b-5[8:1],,,28,,,7bz3[4:1],,,,5h[16:1],,5h[16:1],,5b,,
{16},,1,,3b/7b,,7,8,6-2[8:1],,2-8[8:1],,6,,4,,
,,7/3-5[8:1],,5-1[8:1]/1,,3,,1,,7h[4:1],,,,1,1,
8>3[8:1],,7,8,6pp5[16:5],,5,,64,,,,2,,2,,
3/4-1[8:1],,5,4,6,,7h[8:1],,3<6[8:1],,{24}8,1,2,{16}3,,,,
7/5<8[8:1],,4,5,3-5[8:1],,2,1,3-7[8:1],,7-1[8:1],,3,,5,,
,,2/6-4[8:1],,4-8[8:1]/8,,6,,8,,2h[4:1],,,,1,1,
8<5[8:1]/2,,1,8,2>5[8:1],,1,,4-8[8:1]/2,,6-3[8:1],,4,,6,,
{8},1-4[8:1],7-3[8:1],1-6[8:1],7,1,5w1[8:1],,
5b,,3-1[8:1]/7,2,3/4-8[8:1],6,4/5-7[8:1],,
2-6[8:1]/5,1,2/8-4[8:1],1,5qq3[32:5]*pp7[32:5]/8,,,,
{12}
6,5,5,4,5,5,6,5,5,4,5,5,7,5,5,3,5,5,1-5[8:1],5,5,1,,,
3,4,4,5,4,4,3,4,4,5,4,4,2,4,4,6,4,4,8-4[8:1],4,4,8,,,
6,5,5,4,5,5,7,5,5,3,5,5,8,5,5,2,5,5,1-5[8:1],5,5,1,,,
3,4,4,5,4,4,2,8,6,4,2,8,
{8}2bq2[8:4]/6bq6[8:4],,,,,,,8b/4b,
