&title=ブレス・ユア・ブレス
&artist=和田たけあき feat. 初音ミク
&first=0
&des=Tail_R
&lv_5=13
&inote_5=(152)
{1},
{1},
{1}6V85[2:3]/4V25[2:3],
{1},
{8}5V74[2:1],,4,,4-1-3[2:1],,3,,
{4}2x,1x,E5/B5/B4,E7/B7/E8/B8/E1f/B1/E2/B2/E3,
{16}3x>8[8:1]/4x,,,6,,,5,,4/3>8[8:1],,,6,,,5,,
{16}3>8[8:1]/4,,,6,,,5,,4p8[8:1]/3>8[8:1],,,,,,,,
{16}4x-1[8:1]/5x,,,7,,,6,,5-8[8:1]/4,,,2,,,3,,
{16}4-1[8:1]/5,,,7,,,6,,5-1[8:1]/4-8[8:1],,,,,,,,
{16}6x-1[8:1]/5x,,,3,,,4,,5/6-1[8:1],,,3,,,4,,
{16}6-1[8:1]/5,,,3,,,4,,5-1[8:1]/6-1[8:1],,,,,,,,
{16}4x>1[8:1]/5x,,,6,,,7,,5<8[8:1]/4,,,3,,,2,,
{16}4/5,,,1/3,,,6/8,,4-1[8:1]/5-8[8:1],,,,Cf,,,,
{16}1b/8b,,3,4,2,,6,5,7,,3,4,2,,6,5,
{4}7<3[4:1],3>7[4:1],7,3,
{8}4-7[8:1]/7,,6,5,4-8[8:1],,6,5,
{4}4-1[8:1],1,8-6[8:1]*-4[8:1],8,
{16}4/5,,2,1,3,,7,8,6,,2,1,3,,7,8,
{4}6V84[4:1],4V26[4:1],8,4,
{8}6^1[8:1]/1,,4,5,6q2[8:1],,4,5,
{4}6p3[4:1],3,2,1/8,
{4}2x<6[4:1],6v4[16:3],5,6,
{8}7x-4-8[4:1],,8-3[8:1],1,2h[4:1],,4,,
{8}1x-5[8:1],,3,2,1v6[8:1]*v4[8:1],,1,,
{4}5xw1[8:1],5,8xV24[16:3]*-5^6[16:3],,
{8}7-4[8:1],,4,3,1-5[8:1],,5,6,
{8}6x-3[8:1],,3,2,2-4[8:1]*-6[8:1],,2,,
{8}5hx[4:1]/3x,,3,2/5,1/4,3/8,2/7,1/6,
{32}8x/5,E1,B1,B2,,,4x,E5,B5,B6,,,3/7,,,,1-6b[8:1]/2-5b[8:1],,,,,,,,1b/2b,E2,Cf,E6,,,,,
{16}4-8[8:1]/5,,,3,4,,2,,1/7-3[8:1],,3-5[8:1],,7/2,,1,,
{16}8-4[8:1],,,7,8,,6,,5-2[8:1]/3,,2-8[8:1],,3,,4,,
{8}5h[4:1],,4>1[8:1]*p8[8:1],3/5,4,,4>8[8:1]*p7[8:1],
{8}3/5,4x,,4>7[32:5]*p6[32:5],3/5,{32}4x,,,,,,,,E7/B6/B2/E3/Cf,,,,,,,,
{16}5-1[8:1]/4,,,6,5,,7,,8/2-6[8:1],,6-4[8:1],,2/7,,8,,
{16}1-5[8:1],,,2,1,,3,,4-7-1[4:1]/6,,7,,6,,5,,
{8}4h[4:1],,5>1[8:1]*p1[8:1],4/6,5,,5V31[8:1]*-2[8:1],4/6,
{8}5V71[8:1]*-8[8:1],,5w1b[8:1],,5b,,4,3,
{8}2>8[4:1],,8<2[4:1],1,2>8[4:1],,8<2[4:1],,
{8}2>8[4:1],,8<2[4:1],1,2,,1,2,
{16}2/4,,3,4,2,,6,5,7,,2,1,3,,7,8,
{16}6x-1[8:1]/1x,,5,4,6,,3,,2-5[8:1]/8,,3,4,2,,6,,
{8}4>6[4:1],,6<4[4:1],5,4>6[4:1],,6<4[4:1],,
{8}4>6[4:1],,6<4[4:1],5,4,,5,6,
{16}7/5,,6,5,7,,3,4,2,,7,8,6,,2,1,
{16}3bx-1[8:1]/8bx-4[8:1],,,,3b-6[8:1]/8b-5[8:1],,,,3b/8b,,,,B3,,B4,,
{16}7V51[32:7],,,4,4,,3,,2V48[32:7],,,8,8,,7,,
{16}6V47[32:7],,,1,1,,2,,3V52[32:7],,,1,1,,8,,
{16}7h[4:1],,,5,5,,6/4,,3-5[32:3],,2,4,3,,6,,
{8}7-3[8:1],7,8-4[8:1],8,1-5[8:1],1,2,2h[8:1],
{16}4-8-6[32:7],,,3,3,,2,,1-5-2[32:7],,,7,7,,6,,
{16}5V73[32:7],,,2,2,,1,,8-4-2[32:7],,,6,6,,7,,
{16}8h[4:1],,,3,3,,4/5,,6-3[8:1]/3,,5,4,6,,2,,
{16}1-5[8:1]/5,,7,7,,8,8,,5x-2[8:1]/1x-6[8:1],,,,,,,,
{8}4h[8:3]/5,6,7,8pp5[4:1],,,,4,
{8}3/4h[8:3],2,1,8pp3[4:1],,6,6,5,
{16}4^7[8:1]/3,,,1,1,,2,,2-6[8:1]/5,,,6,6,,7,,
{8}8w4[8:1],,8,,4v1[8:1]/6v1[8:1],,4/6,,
{8}8h[8:3]/1,2,3,4pp1[4:1],,,,8,
{8}7/8h[8:3],6,5,4qq1[4:1],,7,6,5,
{4}4-8[8:1]/1-5[8:1],4/1,6-3[8:1]/7-2[8:1],,
{8}1/4,3,2/7,6,4/5,3,2/6,7-3b[8:1]/1-5b[8:1],
{8},7qq8[8:9]/1pp8[8:9],,,,,,,
{8},,,,,7h[4:1],,1,
{16}2>5[8:1]/1,,,7,,,8,,1/5-2[8:1],,,8,,,7,,
{16}7-3[8:1]/3,,,2,,,4,,4,1,3,8,2,7,1,6,
{16}8-4[8:1],,,5,5,,6,,7-3[8:1]/5,,,4,4,,2,,
{16}1-5[8:1]/4,,,5,5,,6,,8bx,,3bx/1bx,,4h[8:1],,6,,
{1}7b-1-6-2-5-3b[4:3],
{1},
{8},,,5x-8[4:1]/4x-1[4:1],,,,,
{4}E4,B3,B2,E2,
{4}E6,B6,B7,E8,
{8}4h[4:1]/5h[4:1],,,3/4,3bh[4:1]/4bh[4:1],,,3/4,
{8}4bh[4:1]/2bh[4:1],,,3/4,4hb[4:1]/1hb[4:1],,,,
{4}E4,B3,B2,E2,
{4}E6,B6,B7,E8,
{8}2hx[8:3]/6hx[8:3],,,{64},E2/E6,,B1/B5,,B8/B4,,E8/E4,{8}7xh[4:1]/3xh[4:1],,,8x>4[4:1]/4x<8[4:1],
{8},,,,5w1b[8:1]/4,,{32}B5,Cf,B8/B1/B2,,,,,,
{16}4bv7[8:1]/5b,,,3,4,,2,,1/8-4[8:1],,4V61[32:5],,8/1,,2,,
{16}3q7[8:1],,,2,3,,4x,,5V31[8:1]/8,,1-4[8:1],,5/6,,7,,
{8}8h[4:1],,5<1[8:1]*q2[8:1],6/4,5x,,5<2[32:5]*q3[32:5],6/4,
{8}5x,,5b<3b[32:6]*q4b[32:6],6b/4b,5bx,,A7/E7/B6/Cf/B2/E3/A3,,
{16}5v2[8:1]/4,,,6,5,,7,,8/1-5[8:1],,5V38[32:5],,1/8,,7,,
{16}6p2[8:1],,,7,6,,5x,,4V68[8:1]/1,,8-5[8:1],,4/3,,2,,
{8}1h[4:1],,8-5[8:1]*-3[8:1],1/7,8,,1^6[8:1]*^4[8:1],2/8,
{8}1b-5[8:1],,1bw5[8:1],,1b/Cf,,3/5,2/6,
{8}7<1b[4:1]/1,,1>7[4:1],8,7<1b[4:1],,1>7[4:1],,
{8}7<1b[4:1],,1-5[8:1],8,7,,4h[4:1],6,
{16}5,,3,4,1,,6,5,8,,3,4,1,,6,5,
{16}8-4[8:1],,1,2,8,,3,,7,5,8,1,4,2,8h[8:1],,
{8}3>5b[4:1],,5<3[4:1],4,3>5b[4:1],,5<3[4:1],,
{8}3>5b[4:1],,5-1[8:1],4,3,,8h[4:1],2,
{16}3,,7,5,8,,2,4,1,,7,5,8,,2,4,
{4}3b-7b[8:1],4b-8b[8:1]/3,5bw1b[8:1]/4,5b,
{8}2x>8b[4:1]/8,,8x<2[4:1],1x,{32}2>8b[4:1],E8,E7,E6,E5,E4,E3,,{8}8x<2[4:1],,
{32}2x>8b[4:1],E8,E7,E6,E5,E4,E3,,{8}8x-4[8:1],1x,2x,,5h[4:1],3,
{16}4-1[8:1],,3,5,4,,6,,7-4[8:1]/8,,6,8,7,,2,,
{4}3b-8[8:1]/4b-8[8:1],3/4,6b-1[8:1]/5b-1[8:1],6/5,
{8}6x<4b[4:1]/4,,4x>6[4:1],5x,{32}6<4b[4:1],E4,E3,E2,E1,E8,E7,,{8}4x>6[4:1],,
{32}6x<4b[4:1],E4,E3,E2,E1,E8,E7,,{8}4x-8[8:1],5x,6x,,1h[4:1],7,
{16}5^8[8:1],,6,4,5,,3,,2v5[8:1]/1,,3,1,2,,7,,
{4}6b-2[8:1]/4,4b-8[8:1]/6,1bw5[8:1]/4,Cf,
{16}3x>8[8:1]/5x,,,4,3,,4,,5/3>8[8:1],,,4,3,,4,,
{16}3>8[8:1]/5,,,4,3,,4,,4p8b[8:1]/3>8b[8:1],,,,4/3,,,,
{16}4x-1[8:1]/6x,,,5,4,,5,,5-8[8:1]/3,,,4,5,,4,,
{16}4-1[8:1]/6,,,5,4,,5,,5-1b[8:1]/4-8b[8:1],,,,5/4,,,,
{16}6x-1[8:1]/4x,,,5,6,,5,,4/6-1[8:1],,,5,6,,5,,
{16}6-1[8:1]/4,,,5,6,,5,,5-1[8:1]/6-1[8:1],,,,5/6,,,,
{16}4x>1[8:1]/6x,,,5,4,,5,,5<8[8:1]/3,,,4,5,,4,,
{16}4b/5b,,,1b/3b,,,6b/8b,,4b-1b[8:1]/5b-8b[8:1],,,,4b^7p2[76#8:7]/5b^2q7[76#8:7],,,,
{4},A5/D5f/A4,,,
E
