&title=白庭
&artist=くるぶっこちゃん
&first=-0.2
&des_1=Poema
&des_2=Poema
&des_3=Poema
&des_4=Poema
&des_5=Poema
&lv_5=14
&des_6=Poema
&des_7=Poema
&des=Poema
&inote_5=(111)
{4},,,,,,,,,,,,,,
{8},6<1s5[8:12]/A2h[8:14],,,
{4},,,,,,,,,,3>1q5[8:8]/Ch[8:10],,,,,,
{8}
A6h[16:3]/4x,3,2,1,8,7,6,
A5h[16:3]/3x,2,1,8,7,6,5,
A4h[16:3]/2x,1,8,7,6,5,4,
A3h[16:3]/1x,8,7,6,5,4,3,
{16}7<4[8:1]/2,
,,71,,3,3b,
,12,,,7/5h[8:2],,,6,6,,4/3<5<8[8:4],,,,,,8,,,1p5[8:2],,2,,,3,,,4b>2<7[8:4],
,,24,,,4,,5,5,,6,,,,,,15,,,43,,
6/4h[16:3],,,1v6[16:2],,
{48}A4,D4,A3,D3h[8:1],,,{16},C,,,,,
{16}7>1-3<4[8:3]/8,78,,,76,,A7,B6,A5h[8:1],,,,,4/3h[16:5],,2-4-6-8[8:4],2,2,2,,,,,
8x-3[16:3],,,3x<5[16:3],,,5x-1[16:3],,,1x-6[16:3],,,,,,,,,Ch[8:1],,
4x,,35,,4/6,5h[48:1],7h[16:3],,,8,,,8/6-3[8:2]b,,75,,,
{32}4,,,,,,2h[8:1],,,,,,,,1h[8:1]/5,,,,,,,,
{16}4h[16:3]/3,,,Ch[16:3],,,6,,7h[8:1]x`8x,,,1h[8:1],,6h[8:1],,
{48}1,2,3,4<6<2[8:4],,,{16},,,A1,,,A2,,,A3,,
{16}4h[8:1],,6-1[8:1],5,7,5,6x/4h[8:1],,,4,3,,2h[8:1]/3,,4,,
15,2,3,,5/2-5[8:1],6,7,,8h[8:1]/2x,,,{32}6,5,
{16}4,,7/5-2[8:1],4,
8,,5xs1[8:3]/6h[8:1],,,6,5,,2h[16:2],,,,2,3,4/8,,{32}6p2[8:1]/4,3,
{32}2,1,{16}8,,6x/5h[8:1],,,,
{12}3h[12:1]/4h[12:1],,1h[12:1]/5h[12:1],,2h[12:1]/4h[24:4],,
{24}3,4,2,5,3,4,2,5h[24:1],3,,
{12}4h[12:1]/6h[12:1],,7h[12:1]/5h[12:1],,{16}8h[12:1]/1h[12:1],,
{32},,2/4h[16:3],,,,,,6h[8:7],,,,
{16}7,,8,,1,,2,,3,,4<3>4[8:14],,,,Ch[8:7]f,,,,,,,,,,,,,,,,,,,,,,,,,,,,,,
{8},,,,,,
A4,A3,A2,A1,A8,A7,A6,
A3,A2,A1,A8,A7,A6,A5,
{16}2/4h[16:3],,,1x-5[16:2],,
{48}D2,A2,D6,A6,,,{16},,,,,,
{16}4>2-8[8:3]/6,64,,,5/4x,,,,E6,E7,E8,
{48}A1/B1,D2,A2,D3,A3,D4,
A4,,,
,,,
{16}75,,,8h[16:3]/5x,,,
5,7,4,6,3,25,,34,2x/4,,,7xs3[8:3]/3x,,,6h[16:4]x/1x,,,,,,,,
6xp4[8:4]/4x,,3,3,,2,2,,1,,3,,2,2,
1xpp4[8:4],5,5,,6,6,,5,,6,,7,7,,8xqq4[8:4],
,2,2,,3,3,,2,,3,,3,2,1h[16:3]x,4,4,,5x/8x,,
{32}A8,D8,A7,D7,A6,D6,A5,D5,A4,D4,A3,D3,A2,D2,A1,D1,
{16}A8/6h[16:3]x,,1,2,,2,3,,35,,37,,
8/2x,7,2h[16:3]x,7,6,,6,5,,34,,24,,1,
2/5x,,1/6x,2/6h[8:1]x,3,4,,8,7x/3x,,15,,17,,1,2,3x/6,4x,5/4x,6/4h[8:1]x,7,8,,75,,64,
{32}3,4,2,5,3,4,1,6,
{16}3b>1-7<6-4-2-8<6-3>1s5[8:9]b,,,,,,,,,,,,,,,,,,,,,,D1/E1,,,,,,,,,,,,,,
{32}7/8b,,1/6h[8:1],,,,2b,,3h[8:2]/8,,,,{32}2b,,4,5,6,7,8,1,{16}2/5,,4,,
{32}6/5b,,4/7h[8:1],,,,3b,,2h[8:2]/5,,,,{32}3b,,1,8,7,6,5,4,{16}3/8,,1,,
6/8h[16:3],,,5h[16:3],,,
{48}1bx,2x,3x,4x>6[16:5],,,{48}6bx,7x,8x,1h[16:7]x,,,,,,,,,
{16},,{48},,,,,,
{24},5x,8,8,4x,7,7,
3x,6,6,2x,4,3,5,4,6,3,4,
{16}2b/5h[8:2]b,,,,
{32}
1,2,3,4,5h[8:1]/6,,,,
7,6,5,4,3h[8:1]/1,,,,
8,1,2,3,4h[16:1]/7,,6,,5h[16:1],,6,,,
2,4,3x,
7,5,6x,
1,4,3x,
8,5,6x<1[8:1],,,,
{32}
45,,,,2/6b,,,,
3x-8[8:1],,,,74,,,,3b/8,7,6,5,4x-6-8-2[8:2],,,,
73,,,,4b>4[8:4]/8,1,2,3,4xs8[8:3]b,,,,
{16}A2f/A1/A3/B2/E2/E3,,,,,,,,,,,,
{48}8b>1>2>3<4<5<6<7>8>1>2>3<4<5<6<7>8[8:16]b/4b,15,26,37,
8/4<5<6<7>8>1>2>3<4<5<6<7>8[12:23],,,,
,,,,
{16},,,,,,,,,,
{16},,,,,,,,,,,,,,
{16},,,,,,,,,,,,,,
{16}E4,,,A6/5h[8:1],,,A7/5h[8:1],,,A8/4h[8:1],,,A1/4h[8:1],,
{48}2bx,1,8,7,6,5,4/A2,,,,,,
{32}
1h[32:1],,4h[32:1],,2h[32:1],,5h[32:1],,
3h[32:1],,4h[32:1],,3h[32:1],,1h[32:1],,
2,1,{48}2,3,4,
{32}5,,7,8,
7,8,6,,
{32}1,4,3,5,{48}2x,1,8,
7,6,5,
4/1x,8,7,
6,5,4,
{32}
3x-6[16:1]/7x-2[16:1],,,,1/5,,,,7b/3b,Cf,,,,,,,
15,,,,{96}A8/A4/E1/E5/Cf,D8/D4,A7/A3,D7/D3,A6/A2,D6/D2,,,,,,,
{32},,,,87,,,,15,,2,,62,,5,,3x,4,3,4,2,,61,,1,,7,,8x,7,1,7,
{48}8h[24:1]/2x,3,4,,
8h[24:1]/3x,4,5,,8h[24:1]/4x,5,6,,
{16}C/1,,,2p6-4-1[8:4]/4,,,,,,,,,,
8,8,,,7-1>4-6[8:4],,,,,,,,,,,1,,,2-8-6-4[8:4],,,C,,
,,,,,
8,8,,,7pp2[8:4],,,,,,C,,,,,3,,,4-8-6-4[8:4],,,C,,
,,,,,
3,3,,,2-8<4[8:4]*-4[8:1],,,,,,A4,,,,,
1,2,3,{32}25,3,4,,5,,{32}4,6,5,6,{16}5h[8:2]/7h[16:4],,,,,,
{32}1,1,1,1,1s5[8:1]b,1,1,1,1,1,1,1,1<3-1-6s2-4[8:14],
E
&inote_6=(111)
{4},,,,,,,,,,,,,,,,
,,,,,,,,,,,,,,,,
{8}
Ch[16:3]/4x,3,2,1,8,7,6,
Ch[16:3]/3x,2,1,8,7,6,5,
Ch[16:3]/2x,1,8,7,6,5,4,
Ch[16:3]/1x,8,7,6,5,4,3,
{16}7-4[8:1]/2,
,,71,,3,3b,
,12,,,7/5h[8:2],,,6,6,,5/3<5<8[8:4],,,,,,1,,,1p5[8:2],,2,,,3,,,4b>2<7[8:4],
,,24,,,4,,5,5,,6,,,,,,15,,,76,,
3/5h[16:3],,,2-6[16:2],,
{48}D6,A5,A3,D3,,,{16},C/A4/B4,,,,,
{16}7>1-3<4[8:3]/8,78,,,71,,A7,A6,A5,,5x,,,3/4h[16:5],,2-4-6-8[8:4],2,2,,,,,,
8x-3[16:3],,,3x<5[16:3],,,5x-1[16:3],,,1x-6[16:3],,,,,,,,,Ch[8:1],,
4x,,35,,4/6,5h[48:1],7h[16:3],,,8,,,8/6-3[8:2]b,,75,,,
{32}4,,,,,,2h[8:1],,,,,,,,3h[8:1]/5,,,,,,,,
{16}4h[16:3]/6,,,6h[16:3],,,7,,7h[8:1]x`8x,,,1h[8:1],,6h[8:1],,
{48}1,2,3,4<6<2[8:4],,,{16},,,A1,,,A2,,,A3,,
{16}4h[8:1],,6-1[8:1],5,7,5,6/4h[8:1],,,4,3,,2h[8:1]/3,,4,,
15,2,3,,5/2-5[8:1],6,7,,8h[8:1]/2,,,{32}6,5,
{16}4,,7/5-2[8:1],4,
8,,5s1[8:3]/6h[8:1],,,6,5,.,2h[16:2],,,,2,3,4h[8:1]/1,,,{32}4/1-5[12:1],38,{16}27,,1/6,,,,
{12}4h[12:1]/6h[12:1],,3h[12:1]/5h[12:1],,2h[12:1]/4h[12:1],,
{24}3,4,2,5,3,4,2,5,3,,
{12}4h[12:1]/6h[12:1],,7h[12:1]/5h[12:1],,{16}8h[16:2]/1h[16:2],,
{32},,2/4h[16:3],,,,,,6h[8:7],,,,
{16}7,,8,,1,,2,,3,,4<3>4[8:14],,,,Ch[8:7]f,,,,,,,,,,,,,,,,,,,,,,,,,,,,,,
{8},,,,,,
A4,A3,A2,A1,A8,A7,A6,
A3,A2,A1,A8,A7,A6,A5,
{16}2/4h[16:3],,,1-5[16:2],,
{48}D2,A2,D6,A6,,,{16},,,,,,
{16}4>2-8[8:3]/6,64,,,5/4,,,,E6,E7,E8,
{48}A1,D2,A2,D3,A3,D4,
A4,,,
,,,
{16}75,,,8h[16:3]/5,,,
5,7,4,6,3,25,,34,24,,,7s3[8:3]/3,,,6h[16:4]x/2x,,,,,,,,
6xp4[8:4]/4x,,3,3,,2,2,,1,,3,,2,2,
1xpp4[8:4],5,5,,6,6,,5,,6,,7,7,,8xqq4[8:4],
,2,2,,3,3,,2,,3,,3,2,1h[16:3]x,4,4,,58,,
{32}A8,D8,A7,D7,A6,D6,A5,D5,A4,D4,A3,D3,A2,D2,A1,D1,
{16}A8/6h[16:3]x,,1,2,,2,3,,35,,37,,
8/2x,7,2h[16:3]x,7,6,,6,5,,34,,24,,1,
2/5x,,1/6x,2/6h[8:1]x,3,4,,8,7x/3x,,15,,17,,1,2,3x/7,4x,5/4x,6/4h[8:1]x,7,8,,75,,64,
{32}3,4,2,5,3,4,1,6,
{16}3bx>1-7<6-4-2-8<6-3>1s5[8:9],,,,,,,,,,,,,,,,,,,,,,D1,,,,,,,,,,,,,,
{16}7/8h[8:2],5<1[16:3],,3,4,,{32}8b,1,2,3,,,,,{16}4h[16:1]/2,,34,,
{16}6/5h[8:2],8<4[16:3],,2,1,,{32}5b,4,3,2,,,,,{16}1h[16:1]/3,,21,,
7/8h[16:3],,,6h[16:3],,,
{48}1x,2x,3x,4x<2p4z8[16:15],,,{32}3h[16:2]x/6x,,,,,4x,3x,,
{16},,{48},,,,,,{16},A2,,,A3,,,
A4,,,,,2/6h[8:2],,,,
{32}8,1,2,3,4h[8:1],,,,1,8,7,6,5h[8:1],,,,
7h[16:1],,5,,3h[16:1],,6,,2h[16:1],,4,,2h[16:1],,
8,5,6,
1,4,3,
8,5,6,
2,4-8[8:1],,,,
{32}
3/1,,,,7/4b,,,,
6<4[8:2],,,,25,,,,6b/1,2,3,4,5>7[8:2],,,,
6,,,,5bw1[8:4]b/8,7,6,5,4,,,,
{16},,,,,,,,,,,,
{16}2h[8:1],,4,4h[8:1],,5,5h[8:1],,{32}6h[16:2],,,,,,
{16}47,,5h[8:1],,6,6h[8:1],,5,5h[8:1],,4,4h[8:1],,{32}3h[16:2],,,,,,
{16}25,,4h[8:1],,3,3h[8:1],,4,4h[8:1],,5,5h[8:1],,{32}6h[16:2],,,,,,
{16}4/7h[16:11],,A5,,,A4,,,A3,,,A2,,,
{32}
4h[32:1],,4h[32:1],,4h[32:1],,4h[32:1],,
3h[32:1],,3h[32:1],,3,4,3,4,2,5,2,5,1,2,1,2,1,21,
{16}
E
&inote_7=(111)
{4},,,,,,,,,,,,,,
{8},6<1s5[8:12],,,
{4},,,,,,,,,,3>1q5[8:8],,,,,,
{8}
Ch[16:3]/4x,3,2,1,8,7,6,
Ch[16:3]/3x,2,1,8,7,6,5,
Ch[16:3]/2x,1,8,7,6,5,4,
Ch[16:3]/1x,8,7,6,5,4,3,
{16}7-4[8:1]/2,
,,71,,3,3b,
,12,,,7/5h[8:2],,,6,6,,5/3<5<8[8:4],,,,,,1,,,1p5[8:2],,2,,,3,,,4b>2<7[8:4],
,,24,,,4,,5,5,,6,,,,,,15,,,76,,
3/5h[16:3],,,2-6[16:2],,
{48}D6,A5,A3,D3,,,{16},C/A4,,,,,
{16}7>1-3<4[8:3]/8,78,,,71,,A7,A6,A5,,C,,,3/4h[16:5],,2-4-6-8[8:4],2,2,,,,,,
8x-3[16:3],,,3x<5[16:3],,,5x-1[16:3],,,1x-6[16:3],,,,,,,,,Ch[8:1],,
4x,,35,,4/6,5h[48:1],7h[16:3],,,8,,,8/6-3[8:2]b,,75,,,
{32}4,,,,,,2h[8:1],,,,,,,,3h[8:1]/5,,,,,,,,
{16}4h[16:3]/6,,,6h[16:3],,,7,,7h[8:1]x`8x,,,1h[8:1],,6h[8:1],,
{48}1,2,3,4<6<2[8:4],,,{16},,,A1,,,A2,,,A3,,
{16}4h[8:1],,6-1[8:1],5,7,5,6/4h[8:1],,,4,3,,2h[8:1]/3,,4,,
15,2,3,,5/2-5[8:1],6,7,,8h[8:1]/2,,,{32}6,5,
{16}4,,7/5-2[8:1],4,
8,,5s1[8:3]/6h[8:1],,,6,5,.,2h[16:2],,,,2,3,4h[8:1]/1,,,{32}4/1-5[12:1],38,{16}27,,1/6,,,,
{12}4h[12:1]/6h[12:1],,3h[12:1]/5h[12:1],,2h[12:1]/4h[12:1],,
{24}3,4,2,5,3,4,2,5,3,,
{12}4h[12:1]/6h[12:1],,7h[12:1]/5h[12:1],,{16}8h[16:2]/1h[16:2],,
{32},,2/4h[16:3],,,,,,6h[8:7],,,,
{16}7,,8,,1,,2,,3,,4<3>4[8:14],,,,Ch[8:7]f,,,,,,,,,,,,,,,,,,,,,,,,,,,,,,
{8},,,,,,
A4,A3,A2,A1,A8,A7,A6,
A3,A2,A1,A8,A7,A6,A5,
{16}2/4h[16:3],,,1-5[16:2],,
{48}D2,A2,D6,A6,,,{16},,,,,,
{16}4>2-8[8:3]/6,64,,,5/4,,,,E6,E7,E8,
{48}A1,D2,A2,D3,A3,D4,
A4,,,
,,,
{16}75,,,8h[16:3]/5,,,
5,7,4,6,3,25,,34,24,,,7s3[8:3]/3,,,6h[16:4]x/2x,,,,,,,,
6xp4[8:4]/4x,,3,3,,2,2,,1,,3,,2,2,
1xpp4[8:4],5,5,,6,6,,5,,6,,7,7,,8xqq4[8:4],
,2,2,,3,3,,2,,3,,3,2,1h[16:3]x,4,4,,58,,
{32}A8,D8,A7,D7,A6,D6,A5,D5,A4,D4,A3,D3,A2,D2,A1,D1,
{16}A8/6h[16:3]x,,1,2,,2,3,,35,,37,,
8/2x,7,2h[16:3]x,7,6,,6,5,,34,,24,,1,
2/5x,,1/6x,2/6h[8:1]x,3,4,,8,7x/3x,,15,,17,,1,2,3x/6,4x,5/4x,6/4h[8:1]x,7,8,,75,,64,
{32}3,4,2,5,3,4,1,6,
{16}3bx>1-7<6-4-2-8<6-3>1s5[8:9],,,,,,,,,,,,,,,,,,,,,,D1/E1,,,,,,,,,,,,,,
{16}7/8h[8:2],5<1[16:3],,3,4,,{32}8b,1,2,3,,,,,{16}4h[16:1]/2,,34,,
{16}6/5h[8:2],8<4[16:3],,2,1,,{32}5b,4,3,2,,,,,{16}1h[16:1]/3,,21,,
7/8h[16:3],,,6h[16:3],,,
{48}1x,2x,3x,4x<2p4z8[16:15],,,{48}8x,1x,2x,3h[16:6]x,,,,,,,,,
{16},,{48},,,,,,{16},A7,,,A6,,,
A5,,,,,7x/6h[8:2],,,,
{32}8,1,2,3,4h[8:1],,,,1,8,7,6,5h[8:1],,,,
7h[16:1],,5,,3h[16:1],,6,,2h[16:1],,4,,2h[16:1],,
8,5,6,
1,4,3,
8,5,6,
2,4-8[8:1],,,,
{32}
3/1,,,,7/4b,,,,
6x<4[8:2],,,,25,,,,6b/1,2,3,4,5x>7[8:2],,,,
6,,,,5bw1[8:4]b/8,7,6,5,4,,,,
{16},,,,,,,,,,,,
{48}1-7-5-3-1<7[8:8],8/2,73,64,
5>3>1<7<5-3[16:15],,,,
,,,,
{16},,,,,,,,,,
{16},,,,,,,,,,,,,,
{16}2h[8:1]x,,4,4h[8:1],,5,5h[8:1],,6h[16:2],,,53,,,
{16}4/7,,,A5/6h[8:1],,,A4/7h[8:1],,,A3/8h[8:1],,,A2/1h[8:1],,
{48}3,4,5,6,7,8,1h[8:2]/5,,,,,,
{32}
4h[32:1],,4h[32:1],,4h[32:1],,4h[32:1],,
3h[32:1],,3h[32:1],,3,4,3,4,2,5,2,5,1,2,1,2,1,21,
{16}
E
