&title=ワンダーランド地下[DX]
&artist=香椎モイミ
&first=1.85
&des=暮呓
&wholebpm=137
&des_5=暮呓
&lv_5=11+
&inote_5=(137)
{4}4,3/5,5,4/6,
{4}3,2/4,6,5/7,
{4}2,1/3,7,6/8,
{4}1,8/2,8,7/1,
{4}4,2/6,8,2/6,
{4}5,3/7,1,3/7,
{4}6,4/8,3,1/5,
{8}1/8,2/7,3/6,5V38[4:1]/4V61[4:1],,,,,
{16}7x-4[8:1],8x,7x,,7x/8x,,,,1/6,,,8/3,,,4/5,,
{4}6^1[8:1]/2^5[8:1],6/2,3^8[8:1]/7^4[8:1],3/7,
{16}2x-5[8:1],1x,2x,,1x/2x,,,,8/3,,,1/6,,,4/5,,
{8}3/6,2/7,1-5[8:1]/8-4[8:1],,1b/8b,,,,
{8}8-5[8:1]/2,,8/2,2,8-4[8:1]/2,,8/2,,
{8}1-4[8:1]/7,,7/1,7,1-5[8:1]/7,,7/1,,
{8}7-4[8:1]/1,,7/1,1,7-3[8:1]/1,,7/1,,
{8}2-5[8:1]/8,,8/2,8,2-6[8:1]/8,,8/2,,
{8}5-8[8:1]/3,,5/3,3,5-1[8:1]/3,,5/3,,
{8}4-1[8:1]/6,,6/4,6,4-8[8:1]/6,,6/4,,
{8}4h[8:1],7,5h[8:1],2,3h[8:1],8,6h[8:1],1,
{8}1/8,2/7,3/6,4/5,Cf,,,,
{4}5/4,5/3,5/2,5/1,
{4}4/5,4/6,4/7,4/8,
{8}1/5,2,3/7,4,5/1,6,7/3,8,
{16}1x,2x,3x,4x,5x,6x,7x,8x,Cf,,,,,,,,
{8}7^5[8:1],7,1^3[8:1],1,7-3[8:1],7,1-5[8:1],1,
{8}7x/1x,8,8/2,1,3/5,4,4/6,5,
{8}4^1[8:1]/5,6,7,8,8^5[8:1]/1,2,3,4,
{8}4/5,3/6,2/7,1/8,Cf,,,,
{8}2^4[8:1],2,8^6[8:1],8,2-6[8:1],2,8-4[8:1],8,
{8}2x/8x,1,1/7,8,6/4,5,5/3,4,
{8}5^8[8:1]/4,3,2,1,1^4[8:1]/8,7,6,5,
{8},8/4,7/3,6/2,5/1,Chf[8:1],,,
{16}7x-4[8:1],8x,7x,8x,,,,,2x-5[8:1],1x,2x,1x,,,,,
{8}8,7/1,1,8/2,4,3/5,5,4/6,
{16}2x-5[8:1],1x,2x,1x,,,,,7x-4[8:1],8x,7x,8x,,,,,
{8}1,8/2,8,7/1,5,4/6,4,3/5,
{16}6x-1[8:1],5x,6x,5x,,,,,3x-8[8:1],4x,3x,4x,,,,,
{8}5,6/4,4,5/3,1,2/8,8,1/7,
{16}3x-8[8:1],4x,3x,4x,,,,,6x-1[8:1],5x,6x,5x,,,,,
{16}4,,3/5,,5,,4/6,,2h[8:1]/7h[8:1],,,4b/5b,,,,,
{8}5h[4:3]/4,3,2,1^6[8:1],,,,,
{8}4h[4:3]/5,6,7,8^3[8:1],,,,,
{8}8h[4:3]/1,2,3,4^7[8:1],,,,,
{8}1h[4:3]/8,7,6,5^2[8:1],,,,,
{16}5h[4:3]/4,,3,,2,,1-4[8:1],1,,,,,,,,,
{16}4h[4:3]/5,,6,,7,,8-5[8:1],8,,,,,,,,,
{8}1/8,2/7,3/6,4V61[4:1]/5V38[4:1],,,,,
{8}4hx[8:1],7x,5h[8:1],2,3h[8:1],8,6h[8:1],1,
{8}5,,3/7,1,1,,3/7,,
{8}4,,2/6,8,8,,2/6,,
{16}E8,B8,B1,,E4,B4,B5,,E7,B6,B5,E5,E3,B2,B1,E1,
{8}5,4/6,4,5/3,8,1/7,1,8/2,
{8}5h[8:3]/4,3,2,1,4h[8:3]/5,6,7,8,
{8}1h[8:3]/8,7,6,5,8h[8:3]/1,2,3,4,
{8}1hx[8:1],2hx[8:1],3hx[8:1],4hx[8:1],5hx[8:1],6hx[8:1],7hx[8:1],8hx[8:1],
{1}Chf[2:1],
{4}8/1,8/2,8/3,8/4,
{4}1/8,1/7,1/6,1/5,
{8}8/4,7,6/2,5,4/8,3,2/6,1,
{16}8x,7x,6x,5x,4x,3x,2x,1x,Cf,,,,,,,,
{1}1>7[4:6],
{1}Ch[2:1],
{1}8<2[4:6],
{1}Ch[2:1],
{1}4>6[4:6],
{1}Ch[2:1],
{1}5<3[4:6],
{1}Ch[2:1],
{8},1/5,2/6,3/7,4/8,Chf[8:1],,,
{16}7x-4[8:1],8x,7x,8x,,,,,2-5[8:1],1,2,1,,,,,
{8}8,7/1,1,8/2,4,3/5,5,4/6,
{16}2-5[8:1],1,2,1,,,,,7-4[8:1],8,7,8,,,,,
{8}1,8/2,8,7/1,5,4/6,4,3/5,
{16}6-1[8:1],5,6,5,,,,,3-8[8:1],4,3,4,,,,,
{8}5,6/4,4,5/3,1,2/8,8,1/7,
{16}3-8[8:1],4,3,4,,,,,6-1[8:1],5,6,5,,,,,
{16}4,,3/5,,5,,4/6,,2h[8:1]/7h[8:1],,,4b/5b,,,,,
{8}8-4[8:1],7,8,,1-5[8:1],2,1,,
{8}7-4[8:1],8,7,,2-5[8:1],1,2,,
{8}5-1[8:1],6,5,,4-8[8:1],3,4,,
{8}6-1[8:1],5,6,,3-8[8:1],4,3,,
{4}4,2/6,8,2/6,
{4}5,3/7,1,3/7,
{4}6,4/8,3,1/5,
{16}4,5,3,6,2,7,1,8,Cf,,,,,,,,
E
