&title=携帯恋話 セカイver
&artist=東雲絵名&暁山瑞希&初音ミク
&first=0.04
&des=
&freemsg=東雲絵名&暁山瑞希&初音ミク
&wholebpm=
&des_1=Tane
&des_2=Tane
&des_3=Tane
&des_4=Tane
&des_5=Tane
&lv_1=4
&lv_2=6
&lv_3=8
&lv_4=10+
&lv_5=13
&inote_1=(150){1},
{8}
,,,,
,,,,
{8}3h[8:8],,,,
,,,,
{8},,,,
,,,,
{8}6h[8:8],,,,
,,,,
{8},,,
,,,,
{8}3h[8:8],,,,
,,,,
{8},,,,
,,,,
{8}6,,,,
,,3b/6b,,
4,,5,,
,,
{16}
2-5[4:2],,,,
,,,,
,,,,
,,,,
6,,,,
,,,,
,,,,
,,,,
2-5[4:2],,,,
,,,,
,,,,
,,,,
6,,,,
,,,,
,,,,
,,,,
7-4[4:2],,,,
,,,,
,,,,
,,,,
3,,,,
,,,,
,,,,
,,,,
7-4[4:2],,,,
,,,,
,,,,
,,,,
3,,,,
,,,,
,,,,
,,,,
3h[8:11],,,,
,,,,
,,,,
,,,,
,,,,
,,,,
,,,,
,,,,
2h[8:11],,,,
,,,,
,,,,
,,,,
,,,,
,,,,
,,,,
,,,,
6h[8:11],,,,
,,,,
,,,,
,,,,
,,,,
,,,,
,,,,
,,,,
7h[8:11],,,,
,,,,
,,,,
,,,,
,,,,
,,,,
,,,,
,,,,
,,
{2}3,2,1,8,
57,,24,,
{2}6,7,8,1,
42,,75,,
{16}
7h[256:1],,,,
,,,,
,,,,
,,,,
1-4[4:3],,,,
,,,,
,,,,
,,,,
5,,,,
,,,,
,,,,
,,,,
5,,,,
,,,,
,,,,
,,,,
2h[256:1],,,,
,,,,
,,,,
,,,,
8-5[4:3],,,,
,,,,
,,,,
,,,,
4,,,,
,,,,
,,,,
,,,,
4,,,,
,,,,
,,,,
,,,,
{4}2,,4,,
5,,7,,
{8}18,,,,
18,,,,
18,,,,
,,,2-5[8:3],
,,,,
,,,7-4[8:3],
,,,,
,,,3p5[8:4],
,,,,
,,,7,,,
,,,,
,6-1[8:3],,,
,,,,,2-5[8:3],
,,,,
,,,5pp5[8:5],
,,,,
,,,1,
,,,,
,,,12,
,,,,
,,,78,
,,,,
,,,,
3>8[8:4],,,,
,,,,
6,,,,
,,,
{2},,6,,
4,,,
{8}27,,
5,,5w1[4:3],,
,,,,
,,,,
,,,,
,,,1b/8b,
,,,,
,,,5,
4,,,,
,,
1-5[8:4],,,,
,6,,,
6,,,,
,,,,
8-4[8:4],,,,
,3,,,
3,,,,
,,,,
1q5[8:4],,,,
,6,,,
6,,,,
,,,,
8p4[8:4],,,,
,3,,,
3,,,,
,,,,
2-5[4:2],,,,
,6,,,
7,,,,
,,,,
7-4[4:2],,,,
,2,,,
2,,,,
,,,,
1-5[4:2],,,,
,6,,,
7,,,,
,,,,
8-4[4:2],,,,
,2,,,
8,,,,
2,,,,
8bz4[8:14],,,,,,,,,,,,,,,,,,,,,,,,,,,,,,,,,
&inote_2=(150){1},
{8}
,,,,
,,,,
{8}3h[8:8],,,,
,,,,
{8},,,,
,,,,
{8}6h[8:8],,,,
,,,,
{8},,,
,,,,
{8}3h[8:8],,,,
,,,,
{8},,,,
,,,,
{8}6,,,,
,,3b/6b,,
4,,5,,
,,
{16}
2-5[4:2],,,,
,,,,
,,6,,
,,,,
6,,,,
,,,,
,,7,,
,,,,
2-5[4:2],,,,
,,,,
,,6,,
,,,,
6,,,,
,,,,
,,7,,
,,,,
7-4[4:2],,,,
,,,,
,,3,,
,,,,
3,,,,
,,,,
,,2,,
,,,,
7-4[4:2],,,,
,,,,
,,3,,
,,,,
3,,,,
,,,,
,,2,,
,,,,
3h[8:11],,,,
,,,,
,,,,
,,1,,
,,,,
,,,,
,,,,
,,,,
2h[8:11],,,,
,,,,
,,,,
,,4,,
,,,,
,,,,
,,,,
,,,,
6h[8:11],,,,
,,,,
,,,,
,,8,,
,,,,
,,,,
,,,,
,,,,
7h[8:11],,,,
,,,,
,,,,
,,5,,
,,,,
,,,,
,,,,
,,,,
,,
{2}3,2,1,8,
57,6,24,3,
{2}6,7,8,1,
42,3,75,6,
{16}
7h[256:1],,,,
,,,,
,,,,
,,,,
1-4[2:1],,,,
,,,,
,,,,
,,,,
5,,,,
,,,,
,,,,
,,,,
5h[2:1],,,,
,,,,
,,,,
,,,,
2h[256:1],,,,
,,,,
,,,,
,,,,
8-5[2:1],,,,
,,,,
,,,,
,,,,
4,,,,
,,,,
,,,,
,,,,
4h[2:1],,,,
,,,,
,,,,
,,,,
{4}2,,4,,
5,,7,,
{8}18,,,,
18,,,,
18,,,,
,,,1-6[8:3]/2-5[8:3],
,,,,
,,,7-4[8:3]/8-3[8:3],
,,,,
,,,3p5[8:4],
,,,,
,,,7q4[8:4],,,
,,,,
,6-1[8:3]/5-2[8:3],,,
,,,,,8-3[8:3]/7-4[8:3],
,,,,
,,,5pp5[8:5],
,,,,
,,,1-4[2:1],
,,,,
,,,12,
,,,,
,,,78,
,,,,
,,,,
3>8[8:4],,,,
,,,,
6<1[8:4],,,,
,,,
{2},,6,,
4w8[4:3],,,
{8}27,,
5,,5w1[4:3],,
,,,,
,,,,
,,,,
,,,1b/8b,
,,,,
,,,5,
4,,,,
,,
1-5[8:4],,,,
,6,,,
6,,,,
,7,,,
8-4[8:4],,,,
,3,,,
3,,,,
,2,,,
1q5[8:4],,,,
,6,,,
6,,,,
,7,,,
8p4[8:4],,,,
,3,,,
3,,,,
,2,,,
2-5[4:2],,,,
,6,,,
7-4[4:2],,,,
,3,,,
2-5[4:2],,,,
,7,,,
7-4[4:2],,,,
,2,,,
1-5[4:2],,,,
,6,,,
8-4[4:2],,,,
,3,,,
1-5[4:2],,,,
,6,,,
8,,,,
2,,,,
8bz4[8:14],
,,,,,,,,,,,,,,,,,,,,,,,,,,,,,,,,,,
&inote_3=(150){1},
{8}
,,,,
,,,,
{8}3h[8:8],,,,
,,,,
{8}3,,,,
,,,,
{8}6h[8:8],,,,
,,,,
{8}6,,,
,,,,
{8}3h[8:8],,,,
,,,,
{8}3,,,,
,,,,
{8}6,,,,
,,3b/6b,,
4,5,4,5,
,,
{16}
2-5[4:1],,,,
7,,,,
,,6,,
,2,,,
1-5[4:1],,,,
8,,,,
,,7,,
,3,,,
2-5[4:1],,,,
7,,,,
,,6,,
,2,,,
5<1[8:3],,,,
2,,,,
,,3,,
,5,,,
7-4[4:1],,,,
2,,,,
,,3,,
,7,,,
8-4[4:1],,,,
1,,,,
,,2,,
,6,,,
7-4[4:1],,,,
2,,,,
,,3,,
,7,,,
4>8[8:3],,,,
7,,,,
,,6,,
,4,,,
3h[8:11],,,,
,,1,,
,,,,
,,1,,
,,,,
,,1,,
,,,,
,,1,,
2h[8:11],,,,
,,4,,
,,,,
,,4,,
,,,,
,,4,,
,,,,
,,5,,
6h[8:11],,,,
,,8,,
,,,,
,,8,,
,,,,
,,8,,
,,,,
,,8,,
7h[8:11],,,,
,,5,,
,,,,
,,5,,
,,,,
,,5,,
,,,,
,,4,,
,,
{2}3,2,1,8,
57,6,24,3,
{2}6,7,8,1,
42,3,75,6,
{16}
7h[256:1],,,,
,,,,
8h[256:1],,,,
,,,,
1-4[2:1],,,,
,,,,
,,,,
,,,,
5,,,,
,,,,
,,,,
,,,,
5h[2:1],,,,
,,,,
,,,,
,,,,
2h[256:1],,,,
,,,,
1h[256:1],,,,
,,,,
8-5[2:1],,,,
,,,,
,,,,
,,,,
4,,,,
,,,,
,,,,
,,,,
4h[2:1],,,,
,,,,
,,,,
,,,,
{4}2,,4,,
5,,7,,
{8}1,,8,,
1,,8,,
18,,,,
,,,1-6[8:2]/2-5[8:2],
,,,,
7,,7,7-4[4:1]/8-3[4:1],
,,,,
2,,3,3p5[8:4],
,,,,
,,,7q4[8:4],,,
,,,,
,6-1[4:1]/5-2[4:1],,,
,,6,,7,8-3[4:1]/7-4[4:1],
,,,,
6,,5,5pp5[8:5],
,,,,
,,,1-4[2:1],
,,,,
,,,12,
,,,,
7,,7,78,
,,,,
2,,2,,
3>7[8:4],,,,
,,,,
6<2[8:4],,,,
,,,
{2}3h[1:1],,6h[1:1],,
4w8[4:3],,,
{8}27,,
5,4,5w1[4:3],,
,,,,
,,,,
,,,,
,,,1b/8b,
,,,,
,,,45,
45,,,,
,,
1-5[8:4],,,,
,6,,,
8-4[8:4],,,,
,3,,,
1-5[8:4],,,,
,8,,,
8-4[8:4],,,,
,1,,,
1q5[8:4],,,,
,7,,,
8p4[8:4],,,,
,2,,,
1q5[8:4],,,,
,8,,,
8p4[8:4],,,,
,1,,,
2-5[4:2],,,,
,6,,,
7-4[4:2],,,,
,3,,,
2-5[4:2],,,,
,7,,,
7-4[4:2],,,,
,2,,,
1-5[4:2],,,,
,6,,,
8-4[4:2],,,,
,3,,,
1-5[4:2],,,,
,6,,,
8,,3,,
2,,1,,
8bz4[8:14],
,,,,,,,,,,,,,,,,,,,,,,,,,,,,
&inote_4=(150){1},
{8}
,,,,
,,,,
{8}3h[8:5],,,,
,4h[8:5],,,
{8}3,,,34,
,5,,,
{8}6h[8:5],,,,
,5h[8:5],,,
{8}6,,,
65,,4,,
{8}3h[8:5],,,,
,4h[8:5],,,
{8}3,,,34,
,5,,,
{8}6h[8:4],,,,
3,,3b/6b,,
3,5,4,6,
3,5,
{16}
2-5[4:1],,,,
7,,7,,
,,6,,
,25,,,
1-5[4:1],,,,
8,,8,,
,,7,,
,36,,,
2-5[4:1],,,,
7,,7,,
,,6,,
,25,,,
5<1[8:3],,,,
2,,2,,
,,3,,
,56,,,
7-4[4:1],,,,
2,,2,,
,,3,,
,74,,,
8-4[4:1],,,,
1,,1,,
,,2,,
,63,,,
7-4[4:1],,,,
2,,2,,
,,3,,
,74,,,
4>8[8:3],,,,
7,,7,,
,,6,,
,43,,,
3h[8:14],,,,
,,1,,
,,,,
,,1,,
,,,,
,,1,,
,,,,
,,1,,
1h[8:14],,,,
,,3,,
,,,,
,,3,,
,,,,
,,3,,
,,,,
,,3,,
6h[8:14],,,,
,,8,,
,,,,
,,8,,
,,,,
,,8,,
,,,,
,,8,,
8h[8:14],,,,
,,6,,
,,,,
,,6,,
,,,,
,,6,,
,,,,
,,6,,
,,
2^5[8:1],,,,
7,,,,
8^5[8:1],,,,
1,,,,
2^5[8:1],,,,
7,,,,
7,,,,
78,,,,
7^4[8:1],,,,
2,,,,
1^4[8:1],,,,
8,,,,
7^4[8:1],,,,
2,,,,
2,,,,
21,,,,
8^5[8:1],,,,
2,,,,
1^4[8:1],,,,
7,,,,
8^5[8:1],,,,
1,,,,
1,,,,
18,,,,
2^5[8:1],,,,
8,,,,
7^4[8:1],,,,
1,,
1b,,,,
1b,,1b,,
8b,,8b,,
1b/8b,,,,,,
7h[256:1],,,,
,,,,
6h[256:1],,,,
,,,,
5v4[2:1],,,,
,,,,
,,,,
,,,,
1v8[2:1],,,,
,,,,
,,,,
,,,,
1s5[8:5],,,,
,,,,
,,,,
,,,,
2h[256:1],,,,
,,,,
3h[256:1],,,,
,,,,
4v5[2:1],,,,
,,,,
,,,,
,,,,
8v1[2:1],,,,
,,,,
,,,,
,,,,
8z4[8:5],,,,
,,,,
,,,,
,,,,
{4}2h[2:1],,4h[2:1],,
5h[2:1],,7h[2:1],,
{8}1,1,8,8,
1,1,8,8,
18,,,,
,3-8[4:1]/4-7[4:1],,,
,,7-4[8:1],,
3,,2,1-6[4:1]/2-5[4:1],
,,,,
6-1[8:1],,3,,
4-1[8:1],,,,
5-8[8:1],,,4qq4[8:4],,,
,,,,
,6-1[4:1]/5-2[4:1],,,
,,6,,7,8-3[4:1]/7-4[4:1],
,,,,
3-8[8:1],,6,,
5-8[8:1],,,,
4,,,26,
,1-5[8:3]/7-3[8:3],,,
,,,
1-6[4:1]/2-5[4:1],,,,
,7,,7,
8-3[4:1]/7-4[4:1],,,,
,2,,2,
3>7[8:4],,,,
,,,,
5pp5[8:5]*qq5[8:5],,,,
,,,,
6h[8:5],,5,
,,4h[8:5],
,,5,,
,6,6,,
4,5,3/6<3[8:4],,
,,,,
,,1h[4:1],,
5,4,3,,
4,5,6h[8:3],,
,8,1h[8:8],,
,8h[8:5],,,
,,,,
,,,1b/8b,
,,,,
,,,45,
45,,,,
,,
1-5[8:4],,7,7,
,6,,,
8-4[8:4],,2,2,
,3,,,
1-5[8:4],,7,7,
,8,,,
8-4[8:4],,2,2,
,1,,,
1q5[8:4],,6,6,
,7,,,
8p4[8:4],,3,3,
,2,,,
1q5[8:4],,7,7,
,8,,,
8p4[8:4],,2,2,
,1,,,
2-5[4:1],,7,7,
,6,5,6,
7-4[4:1],,2,2,
,3,4,3,
2-5[4:1],,6,6,
,7,5,7,
7-4[4:1],,3,3,
,2,4,2,
1-5[4:1],,6,6,
,6,5,7,
8-4[4:1],,3,3,
,3,4,2,
1-5[4:1],,6,6,
,6,5,7,
8,,3,7,
2,6,1,5,
8bz4[8:14],,,,,,,,,,,,,,,,,,,,,,,,,,,,,,,,,,,,,,,,,,,,,,,,,,
&inote_5=(150){1},
{8}
,,,,
,,,,
{16}
3,,,,
34,,,3,
,,4h[8:3],,
,,2,,
2,,,,
3,,,34,
,,3,,
,4,,,
5,,,,
56,,,6,
,,5h[8:3],,
,,7,,
7,,,,
6,,,65,
,,6,,
,4,,,
3,,,,
2,,,34,
,,2h[8:3],,
,,4,,
4,,,,
3,4,,34,
,,4,,
,,5,,
6,,,,
7,,,56,
,,7b-4[8:1]/4b,,
,,3,,
3,,34,,
3,5,4,6,
3,5,
2-5[4:1],,,,
7,,7h[8:2],,
,,5,6,
,47,,,
3/5<8[4:1],,,,
2,,3h[8:2],,
,,7,3,
,37,,,
5<8[4:1]/2,,,,
1,,3h[8:2],,
,,8,4,
,26,,,
5<1[4:1]/1,,,,
2,,3,,
,,3,3,
5,4,6,5,
7-4[4:1],,,,
2,,2h[8:2],,
,,4,3,
,52,,,
6/4>1[4:1],,,,
7,,6h[8:2],,
,,2,6,
,62,,,
4>1[4:1]/7,,,,
8,,6h[8:2],,
,,1,5,
,73,,,
4>8[4:1]/8,,,,
7,,6,,
,,6,6,
1,7,2,8,
3h[8:11],,,,
,,1,,
,,,,
,,1,,
,,,,
,,1,,
,2,4,,
35,,2,,
35,,,,
5h[8:9]/2,,1,,
,,,,
,,1,,
,,,,
,,1,,
2,5,3,,
4,,46,,
57,,,,
7h[8:9],,5,,
,,,,
,,5,,
,,,,
,,5,,
,7,5,,
64,,7,,
64,,,,
4h[8:9]/7,,8,,
,,,,
,,8,,
,,,,
,,8,,
7,4,6,,
5,,35,,
,,
2^5[8:1],,,,
7,,,,
8^5[8:1],,,,
1,,,,
2^5[8:1],1,,,
8,,,,
7,8,,8,
7,,8,,
7^4[8:1],,,,
2,,,,
1^4[8:1],,,,
8,,,,
7^4[8:1],8,,,
1,,,,
2,1,,1,
2,,1,,
8^5[8:1],,,,
2,,,,
1^4[8:1],,,,
7,,,,
8^5[8:1],,,,
1,,,,
1,8,,8,
1,,2,,
2^5[8:1],,,,
8,,,,
7^4[8:1],,,,
1,,
2b-6[8:1],,,,
8b,,8b,,
8b,,8b/4b,,
8b/4b,,7b/3b,,7b/3b,,
7v6[8:4],,,,
,,,,
4>8[8:7],,,,
,,,,
5h[256:1],,,,
,,,,
6h[256:1],,,,
,,,,
7v6[8:8],,,,
,,,,
,,,,
,,,,
1s5[8:5],,,,
,,,,
,,,,
,,,,
2v3[8:4]/6h[256:1],,,,
,,,,
5<1[8:7],,,,
,,,,
4h[256:1],,,,
,,,,
3h[256:1],,,,
,,,,
2v3[8:8],,,,
,,,,
,,,,
,,,,
1h[256:1],,,,
,,,,
8h[256:1],,,,
1,8,1,,
27,,2,,
2,,2,,
24,,4,,
4,,4,,
45,,5,,
5,,5,,
57,,7,,
7,,7,,
78,,7,,
24,,2,,
56,,6,,
13,,3,,
78,,,,
,,,,
6,4,5,3,
6,4,
7-4[8:1],,4,,
7,,2,,
1,,8-4[8:1],1,
,1,8,,
2-5[8:1],,5,,
2,,7,,
8,,1-5[8:1],8,
,8,1,,
7,,7,,
2,,6^3[8:1],,
3-6[4:1],,,,
,,,,
4qq4[8:3],,,,
,,4p7[8:1]*^7[8:1],,
,,,,
,,,,
1-5[8:1],,2,,
1,,3,,
4,,2^5[8:1],1,
,1,2,,
8-4[8:1],,7,,
8,,6,,
5,,7^4[8:1],8,
,8,7,,
1-5[4:1],,,,
5pp5[4:1]*qq5[4:1],,5,,
,,,,
,,,5,
5h[4:2],,,,
4,,4,,
{24}4,3,2,1,8,7,
6,5,4,3,,,
{16}
5/1-5[8:1],,7,,
1,,8,,
2,,3^6[8:1],1,
,1,3,,
8-4[8:1],,2,,
8,,1,,
7,,6^3[8:1],8,
,8,6,,
2,,2,,
7,,3^6[8:1],,
6>2[4:1],,,,
,,,,
7,,,,
18,,1,8,
2,7,3,6,
4,5,4,,
3qq5[2:1],,,,
5,,5,,
6,,6,,
,7,,,
8<4[8:3],,,,
4,,3,,
2,,,,
1,,8,,
27,,18,,
27,,12,38,
,78,16,,
1,8,2,7,
3>6[8:3],,,,
6,,5,,
4z8[8:2],,,,
3,,3,,
3,,2b/4b,,
,,6,,
5b/7b,,,,
2,,1b/3b,,
2,,1,,
68,,7,,
8,,1,8,
2,7,3,6,
4,,5b-1[8:5],,
,,,,
,,,,
,,,,
,,8b/1b,,
8b/1b,,18,,
78,16,,12,
38,,27,,
8b/1b-4[8:1],,,8,
1>5[8:3],,8,,
,,6,6,
,7,,,
8-5[8:1],,,1,
8<4[8:3],,1,,
,,3,3,
,2,,,
1-4[8:1],,,8,
1>5[8:3],,8,,
,,6,6,
,7,,,
8-5[8:1],,,1,
8<4[8:3],,1,,
,,3,3,
,2,,1,
1bq5[8:1],,,8,
1>6[8:3],,7,,
,,7,7,
,8,,,
8p4[8:1],,,1,
8<3[8:3],,2,,
,,2,2,
,1,,,
1q5[8:1],,,8,
1>6[8:3],,7,,
,,7,7,
,8,,,
8,,7,5,
6,4,5,3,
4,,5,3,
6,4,7,5,
8-4[8:1],,,1,
8<3[8:3],,2,,
,,3<7[16:3],3,
,2,,,
1-5[8:1],,,8,
1>6[8:3],,7,,
,,6>2[16:3],6,
,7,,,
8-4[8:1],,,1,
8<3[8:3],,2,,
,,3<7[16:3],3,
,2,,,
1-5[8:1],,,8,
1>6[8:3],,7,,
,,6,6,
,7,,8,
8v5[8:1],,,1,
8<3[8:3],,1,,
,,3q7[16:3],3,
,2,,,
1v4[8:1],,,8,
1>6[8:3],,8,,
,,6p2[16:3],6,
,7,,,
8v5[8:1],,,1,
8<3[8:3],,1,,
,,3q7[16:3],3,
,2,,,
1,,1,1,
5,2,6,3,
7,,8,8,
4,7,3,6,
1bs5[8:16]/5s1[8:30],,,,,,,,,,,,,,,,,,,,,,,,,,,,,,,,,,,,,,,,,,,,,,
