&title=Sugarplum
&artist=KOTONOHOUSE
&first=0.9
&des=KOTONOHOUSE最可爱啦
&lv_5=12+
&inote_5=(170)
{4}C,6<2[8:1]/2v4[8:1],,,
{4}4/5,3/4,4/5,5/6,4/5,3/4,4/5,5/6,3/6,4/7,3/6,2/5,3/6,4/7,3/6,2/5,2/7,3/8,2/7,1/6,2/7,3/8,2/7,1/6,
{8}8h[8:2]b/1,,1,7h[8:2]b,1,,1,,1h[8:2]b/8,,8,2h[8:2]b,8,,8,,
{4}3h[8:1]/4,3h[8:1]/5,3h[8:1]/6,3h[8:1]/7,3h[8:1]/7,3h[8:1]/6,3h[8:1]/5,3h[8:1]/4,6h[8:1]/5,6h[8:1]/4,6h[8:1]/3,6h[8:1]/2,6h[8:1]/2,6h[8:1]/3,6h[8:1]/4,6h[8:1]/5,
{8}3h[8:1]/5,5,6h[8:1]/4,4,3h[8:1]/5,5,6h[8:1]/4,4,2h[8:1]/5,5,7h[8:1]/4,4,2h[8:1]/5,5,7h[8:1]/4,4,
{16}4x,5,4,5,3x,6,3,6,2x,7,2,7,1x,8,1,8,
{4}1h[4:1]/7h[4:1],,6<2[8:1]/2v4[8:1],,
{4}3/5h[8:1],6/4h[8:1],3/5h[8:2],3h[8:1],4/6h[8:1],3h[8:1]/5,4h[8:1]/6h[8:1],3h[8:1]/5h[8:1],
{4}4h[8:1]/7,2/5h[8:1],4h[8:2]/7,7h[8:1],2h[8:1]/5,7h[8:1]/4,2h[8:1]/5h[8:1],4h[8:1]/7h[8:1],
{4}2/6h[8:1],7/3h[8:1],2/6h[8:2],2h[8:1],3h[8:1]/7h[8:1],3h[8:1]/7h[8:1],4h[8:1]/6h[8:1],4h[8:1]/6h[8:1],
{4}3h[8:1]/7,3/7h[8:1],2h[8:2]/8,1h[8:1],1>3[8:1]*<7[8:1],1-5[8:1],1w5[8:1],1,
{8}4x/6x,7,3/5,2,4h[8:1]/6h[8:2],,3h[8:1],,3/5,2,4/6,7,4z8[8:1]/5s1[8:1],,,,
{8}3hx[8:1]/6x,7,3/6h[8:1],2,3h[8:2]/6h[8:1],,5h[8:1],,5>2[8:1],,5<8[8:1],,5-1[8:1],,5b,,
{8}8x/2x,3,1/7,6,8h[8:1]/2h[8:2],,7h[8:1],,7/1,6,2/8,3,8<5[8:1]/1>4[8:1],,,,
{8}7hx[8:1]/2x,3,7/2h[8:1],6,7h[8:2]/2h[8:1],,1h[8:1],,1<6[8:1],,1>4[8:1],,1-5[8:1],,1b,,
{8}4h[8:2]/6h[8:2],,,4/6,3/7,,4h[8:4]/6h[8:4],,,,,4/6,3/7,,4/6,,3h[8:2]/5h[8:2],,,3/5,2/6,,3h[8:4]/5h[8:4],,,,,3/5,2/6,,3/5,,
{8}4/5,3,4/5,6,3/5,2,4/6,7,3/4,1,5/6,8,2/5,3,4/7,6,4/5,4/5,3/6,3/6,2/7,2/7,1/8,1/8,
{8}2bx/7bx,,1bpp4[4:1]b/8bqq5[4:1]b,1b/8b,1b/8b,,,,
{8}3h[8:1]/6,5,3/6h[8:1],4,3h[8:1]/6,7,3/6h[8:1],2,2h[8:1]/4,4,4/6h[8:1],4,1h[8:1]/4,4,4/7h[8:1],,
{8}2h[8:1]/4,3,7h[8:1]/5,6,1h[8:1]/4,3,8h[8:1]/5,6,7h[8:1]/5,5,3h[8:1]/5,5,8h[8:1]/5,5,2h[8:1]/5,,
{8}8b-4[8:1],,1h[8:1],,2/6,4,3/7,5,2/5,3,4/7,6,2/4,3,5/7,6,3/4,2,5/6,7,3/5,1,4/6,8,
{4}7bx-5[8:1],8bx-4[8:1]/7bx,8bx/1bx-3[8:1],1bx,
{8}4/5,3,1/2,8,1/8,7,5/6,4,4/5,6,7/8,1,1/8,2,3/4,5,4/5,3,4/5,6,3/5,2,4/6,7,2/5,3,4/7,6,2-6[8:1],8-4[8:1],2,8,
{8}3,3,3/5,3,6,6,6/4,6,2,2,2/4,2,7,7,7/5,7,
{8}8pp5[8:2],,3,4,4h[8:2],,,,4qq8[8:2],,5,6,6h[8:2],,,,
{4}4/5,4/5,5/6,5/6,4/5,4/5,3/4,3/4,4/5,4/5,5/7,5/7,4/5,4/5,2/4,2/4,1/8,1/8,1/2,1/2,1/8,1/8,7/8,7/8,1/8,1/8,1/3,1/3,{8}1h[8:2]b/8,,8,2h[8:2]b,8,,8,,
{4}8b-4[8:12],8,7,1,6,2,5,3,1b-5[8:4],2,2,2,{4}Ch[4:1],,6<2[8:1]/2v4[8:1],,
{8}5pp1[8:12],,,2,2-4[8:1],,,,,,,4,4-2[8:1],,,,4qq8[8:4],,,5,6h[8:2],,,,
{4}2b-4[8:1]b,2b/1b-5[8:1]b,1b/8b-6[8:1]b,8b,
{8}1>4[8:1],5,1<6[8:1],5,1,,1,8,8<5[8:1],4,8>3[8:1],4,8-4[8:1],4,8,,1-3[8:1],4,1-5[8:1],6,1,,6,7,7v4[8:1],8,7,1,2-6[8:1],8-4[8:1],2,8,
{8}1>4[8:1],8,1,7,2>5[8:1],1,2,8,2v5[8:1],1,2,8,7-3[8:1],1-5[8:1],7,1,8<5[8:1],1,8,2,7<4[8:1],8,7,1,
{4}8bx-4[8:1],8bx-6[8:1]*-2[8:1],8bxw4[8:1],8b,
