&title=Johann.Mouse
&artist=Johann·Strauss
&first=0.04
&des=obs & 幻梦
&clock_count=6
&lv_5=14
&inote_5=(120){2},,,
||Begin
{24}1,2,3,4,5,6,7bxpp2b[1:1],8,1,2,3,4,
{4}5x,,,,
{4},2bxqq7b[4:3],E1/B8/B1,,
{4},6h[4:1],7bx-2>3-6<7b[8:11],,
{4},,,,
{4},{16},
{16}3,,,3,,{32},5x,{16},,7p4[8:4],,,
{16}7,,,,,,,,,,{32},2h[32:11],{16},,,1pp5[8:4],,
{16}E8/A8/D8,,,,,,,,,,{32},6h[32:11],{16},,,{32},,{16}3,
{16}3qq7[8:4],,,,,,,,,,5h[32:11],,,,,{32},1h[32:11],
{16},,{48}E6,E7,E8,{16},,,,{32},2h[32:11],{32},,,{48}E6,E7,E8,{16},,,,,
{24}3h[6:1],,,,4h[6:1],,,,5,,6,,7p2[5:1],,,,,,,,,,,,
{24}3xh[6:1],,,,4xh[6:1],,,,5,,6,,7<2[4:1],,,,,,,,,,,,{32},
{4}1-5b[16:9],,,{24},,,,{48},
||
Chapter
1
||
1.皇帝圆舞曲
(172)
{24}6h[24:13],,,,,,,3,,,,,,3,,,,,,,2h[12:6],,,,
{24},,5,,,,,,5,,,,,6h[24:11],,,,,3,,,,,,
{24}3,,,,,,2h[48:22],,,,,{48}5,,{24},,,,,{48}5,,{24},,,,
{24}7h[24:12],,,,,,4,,,,,,4,,,,,,,3h[24:11],,,,,6,,
{24},,,,6,,,,,,7h[24:11],,,,,4,,,,,,4,,,
{24},,3h[24:12],,,,,,6,,,,,,6,,,,,{48},
(200)
{24}5xh[24:13]/4x,,,,,,,3x,,,,,,3x,,,,,,,2xh[24:10]/5x,,,,
{24},6x,,,,,6x,,,,,,7x/3x,,,,,4xV26[2:1]/8x,,,,,8x-4[4:1],,
{24},,,,,,,,,,,,,,,,3,,,2,,,1>4[4:1]/6h[4:1],,
{24},,,,,,,,,6,,,7,,,8<5[4:1]/3h[4:1],,,,,,,,,
{24},,2,,,,,,1bpp4[8:7]*qq6[8:7],,,,,,,,,,,,,,,,
{4},,,{48},7p4[4:5],,,,
(140)
{24},,,,,,,,,,,,,,,,,,,,,,2h[24:13],,
{24},,,,,,,,,,,7h[24:13],,,,,,,,,,,,,
{24}1q4[4:3],,,,,,,,,,,,,,,,,,,,,,,,
{24},,6h[24:14],,,,,,,,,,,,,,3h[24:14],,,,,,,,
{24},,,,,,5p5[4:3],,,,,,,,,,,,,,,C,,,
{24},,,,,,,,,3h[4:1],,,,,,5,,4,,6,,5h[24:5],,,
{24},,6,,4,,5,,3h[4:3],{32},{24}E4,E3,E2,E1,E8,E7,E6,E5,E4,E3,E2,E1,E8,E7,
{24}E6,E5,E4,E3,{48},
(193)
{24}1bx,,,,,,,2,,8,,1,,,8h[24:10],,,,,,,,,,
{24}1x,,,,,4,,6,,4,,,,,,5-1[6:1]*-8[6:1],,,,,5x,,,,
{24},,,,,,,,2/6,,,,,5,,3,,5,,,,,,4-1[6:1]*p8[6:1],
{24},,,,4x,,,,,,,,,,,3/7,,,,,4,,6,,
{24}4,,,,,,5-2[6:1]*pp1[24:20],,,,,5b,,,,,,,,,,3-6[24:5],,,
{24},,,3b,,,,,,,5x,,8x,,4xh[2:1],,7xV51[24:7],,,,,,,,
{24},,,,,,,,2,,8,,2,,,,,,1pp3[6:1]*qq7[6:1],,,,,1x,
{24},,,,,,,,,,2/6,,,,,7h[24:4],,,,1h[24:6],,,,,
{24},8h[24:5],,,,,1-5[6:1],,,,,8b<2[24:17]/1b,,,,,,,,,,,,,
{24},,,,,,,,,,,,1h[24:7],,,,,,,8,,,2,,
{24}8,,1,,7xh[4:1],,,2,,,2,,6xh[4:1],,,3,,,3p1[2:1],,,,,
||
2.维也纳气质圆舞曲
(160)
{24}5b,,,,,,,,,8h[24:13],,,,,,,,,,,,,Ch[24:13],,
{24},,,,,,,,,,,B7/B6,,,,,,,,,,B2/B3/E3,,,
{24},,,,A7/D8/A8,,,A3/A4/D4,,,,,E8/B7/E7,,,,,,,,B2/E2/E3,,,,
{24},,,A6/A5/D6/E6,,,,C/B3/B2/E3,,,,,,,5h[4:1],,,,,,3,,,,
{24},6h[24:10],,,,,4,,,,,4,,,,,7<4[4:1],,,,,8x,,,
{24},,1x,,,,,2<7[4:1],,,,,3x,,,,,,4x,,,,,5xs1<8z4[24:12],
{24},,,,,,,,,,,,,,,,,,,,,6h[24:12],,,
{24},,,,3>7>3[4:4],,,,,,,,,,,,,,,,,,,,
{24},,,,,,,,4<8<4[4:4],,,,,,3,,,3h[24:21],,,,,,,
{24},,,,,,,,,,,,,,,,,,2q6[6:1],,5,,5,,
{24},,,{48},8x,{24},,,,7p3[6:1],,4,,4,,,,,2xh[24:8],,,,,,,
{24},5,,7x,,1x,,3x,,6x,,8x,,2x,,4x,,5x,,7x,,1x,,3xh[24:5],
{24},,,,5xh[24:5],,,,,3p2[2:1],,,,,6xh[24:10],,,,,,,,,,
{24},,,,,,,1,,,6,,,8,,7<4pp6[8:3],,1,,,,2h[24:14],,,
{24},,,,,,,,,,,5,,3,,4,,5,,4,,5,,6,
{24},,,7h[24:5]/5,,,,,4h[24:5],,,,,7,,,6h[24:5]/5,,,,,C,,,
{48},,,
(205)
{24}1-5[8:1]/7,,,2/6,,,1/7h[4:1],,,,,,C,,,,,,7-4[8:1]/3-8[8:1],,,8/4,,,
{24}7/3>5b[2:1],,,,,,,,,,,,,,,,,Cf,,,,,,,
{24},3h[24:7],,,,,,,5,,,,,,7/2h[24:6],,,,,,8,,7,,
{24}6,,,3,,,5xh[12:7],,,,,,4,,,,,,,,2,,,
{24}2h[24:6],,,,,,5,,6,,7,,,1,,,8xh[24:6],,,,,,2bp8[24:9],,
{24},,,,8,,7,,6>3[4:1],,,,,,,6x,,,,,,,,2,,
{24}1p4[4:1]*<5[4:1],,,,,,1,,,,,,,,3x,,,2h[24:5]/5,,,,,7,,
{24},3,,,5-1[8:1],,4,,,7b,,,,,,,,,,,{48},7x,,,,,,6,
{48},,,,,{24}5<8[24:13],,,,,,,,,,,,,3x,,,2,,,1h[48:23],{48},,,
{24},,,,,,,,,
(160)
{24}B5,,,,,,,,,,5,,,5h[24:6],,,,,,4,,,,,
{24}3,,,,,2,,,,,1h[24:6],,,,,,7,,,1-5[24:4]/7,,,,,
{24}6,,,,,6h[24:10],,,,,,,,,,4,,,,,2,,2/8-4[24:4],,
{24},,,3,,,,,3h[24:10],,,,,,,,,,5,,,,,,
{24}2,,1p4[24:4]/6,,,,,5,,,,,5<8[6:1],,,,,,6xh[2:1],,,,,,
{24},,,,,,2h[24:5],,,,,5,,,,,4/5>1[6:1],,,,,3xh[24:9],,,
{24},,,,,,,,,2,,1>2-4[24:4]/7,,,,,5,,,,,,5<1[24:4],,
{24},,,6xh[24:14],,,,,,,,,,,,,,3,,,,,4,,
{24},,,4h[24:5]/7,,,,,7,,6,,5,,,,2,,7,,1,,,,
{24},1w5[16:7],,,,,,B1,,,,,,,,,,,,,,3xh[24:9]/6,,,
{24},,,,,,
(195)
{24}6,,,3x,,,5,,,4,,,6,,,5,,,
{24}7,,,5x,,,7,,,4,,,6,,,3,,,
{24}5,,,2x,,,7,,,1,,,8,,,2,,,
{24}7,,,3x,,,6,,,4,,,6,,,5h[24:4],,,,
{24}7x,,,4,,,6,,,3,,,5,,,2,,,
{24}4x,,,3,,,6,,,4,,,7,,,5,,,
{16}4bx,6,4,6,4,6,3bx,5,3,5,3,5,3,{64}5bpp5[4:5]/E3,B2,B1,E1f,{16},,,,,,,,,,
{1},
{24},,,
(157)
{24}2-7[2:1],,,,,,,,,,,,,,,,,,6-3b[2:1],,,,,,
{24},,,,,,,,,,,,2p7[4:3],,,,,,,,,,,,
{24},,,,,,,,,,,6h[24:12],,,,,,,,,,,,2,
{24},,,,,7,,,,,,8,,,,,B1,,,,,,B1,,
{24},,,,B1,,,A1,,,B1,,,A1,,,B1,,,,,,,,
{24},,,,,,6h[24:10]/4h[24:10],,,,,,,,,,,,,,,,
(170)
{24}2,,,,,6,,3,,5,,,2qq5[16:7],,,6,,,7h[24:14],,,,,,,,
{24},,,,,,4,,6,,5,,4,,5,,4,,3,,,,
{24}2h[24:5]/4,,,,,5h[24:5],,,,,2,,4,,3h[24:5],,,,,C,,,,,
{24},3x/5x,,4x>1[6:1]/6x,,7xh[6:1],,,,,,,,,,6x,,5x,,2xs6[2:1]/4x,,,,,
{24},,,,,,,,,,,,,,,,,7,,,,,,,
{24}5qq1[8:5],,,6h[8:4],,,,,,,,,,,,,,,,,,,,,
{24}6-8[6:1],,,,,,1,,,,,
(163)
||
3.闲聊波尔卡
{24}1b,,,2x-6[8:1]/8h[24:3],3x,4x,,,,2,,,8b,,,7x-3[8:1]/1h[24:3],6x,5x,,,,7,,,
{16}1x,4x,2,5,3,6,4,7,5bqq5[3:1],,,,,,,,
{24},,,,,8xh[4:1],,,,,,,,,,2x-6[8:1]/7h[24:3],3x,4x,,,,2,,,
{32},{16}8x,5x,7,4,6,3,5,2,4bp4-8[2:1],{16},,,,,,{32},
{24},,,,,2xh[24:5],,,,,,,,1,,,8xp2[2:1],,,,,,,3,
{24},,3h[8:1],,,,,,4h[8:1],,,,,,4v3[6:1],,,,,,,,5v2[6:1],,
{24},6h[8:1],,,,,,,,,,3v5[6:1],,,2h[8:1],,,,,,,,,,
{16}3,4,2,5,1,6,8v2[6:1],7,8,7,8b/Cf,,,,,,
{24},,,,,,,,,,,,,,,,,,5h[3:1],,,,,,
{24},,3,,,,,,E4,,B7,,,,,2h[24:7],,,,,,,E1,,
{24}A3,,,,6h[24:6],,,,,,4,,{48},4/5,{24},,,,5/6,,,,5q4[4:1]/3,,,
{24},,5/7,,,,,,,{48},
||
Chapter
2
||
1.?
(80)
{16}7x>1-5-3b[8:3],{8},,,,2h[2:1],
{16},,,,,,7h[16:9],,,,,,,,,{32}1xh[32:5],,
{32},,,7,,,,6xh[32:5],{16},,3,,5/4xh[8:1],,5s1[5:1],,,,,,
{16},{32},2h[32:5],{16},,8,,3h[8:1],,6,,4xh[32:5],,{32},7xh[64:8],,,,5xh[64:9],,,
{32},{64},4xh[64:9],{32},,,,2,,,,,3,,,,4h[8:3],,,,5V72b[8:1],,,,,,,,,,,,,
{16}5x<4[4:1],,,,,,,,,,,,
||
2.蓝色多瑙河
(144)
{6}3,4x,5,5pp8[4:3],,{24},2,
{12},{24},2,,{12},,,3,,3,,,,{24}6,{12},
{24},6,,,,5x,{12},4,,4qq1[4:3],,,,{24},7,,,
{24},7h[6:1],,{12},,,6,,6h[12:2],,,,{24},,,
||
How
to
play
the
waltz
in
six
"Easy"
lessons
(133)
{12}E4,,E5,,E6,,E7,,E8,,A8,,
{12}D1,,A1,,E1/B8/B1,,E2,,E3,,E4,,
{12}6xh[12:1],3,,,,,,,,,B2/B3/E3,,
{12}5xq8[4:1],,,,,,{24},B1/B2,{12},B7/B6,Ch[4:7],,,
||
Lesson
1
{1},,
{12},4,,,,,,,,,B3,,
||
Lesson
2
{1},
{16},,,,,,,,,,4,,4,,,,
||
Lesson
3
{16},,B1,,,,,,,,,,6,,,,
{12},4,,4,,,,,B1,,,,
||
Lesson
4
{12},,,6,,6,,,4,,4,,
||
Lesson
5
{16},,,,,,B1,,,,,,,,,6,
{12},6,{24},5x,{12},,,{24},4,,,,4,{12},,,
||
Lesson
6
{16},,,B1,,,,,,,,,,,,6,
{24},,,6,,,5x,,,4,,,,4,,,,,,,2x,,,,
{24}2x,,,,,,,3x,,,,3xq2[26#32:1],
{1},,
{4},
||
Congratulation!
(85)
{24}6h[6:1]/4h[6:1],,,,,,,6h[6:1]/4h[6:1],,,,,,,5h[6:1]/3h[6:1],,,,,,,,{48},,4h[4:1]/2h[4:1],,
{24},,,,,,,,{48},4b/2b,{24},,,{32}2,4,3,5,4,6,5,7,6-1[16:1],,,,,,,,
{32}6,,,,,7,1,8,2,1,3,2,4-8[16:1],,,,,,,4b,,,,,1bw5b[8:9]/7b,,,,,,,,
{1},
||
Now,
let's
play!
(165)
{12},,,,,,,,,,,,3h[4:1],,,4h[2:1],,,,,,5,5qq3[1:2]*pp7[1:2],,
{1},,,
{4},{32},,,,
{24}E7,,,,,,,,,,E7,,,,,,,,,,,B5,E5,
{24},,,,,,,,,,,,4x,,,,,,,,,,,,
{24},,,6h[6:1],,4h[12:1],,,,,{12},,3,
{12}5,2,4,{16}1pp4[2:1],,,,,,,,{12},5,6,7,8<3p8[1:1],,{16},,,,,,,,,,,,
{24},,,3x,,,,,4x,,,,,,5xh[3:1],,,,,,,,7x,,
{16},,,7,4,6,3,5,2>5[8:1],,,,2,,,,
{16}7,4,6,3,5,2>7pp2[1:1],{16},,,,,,,,,,,
{16},,,,4x,,,,5x,,,,6xh[16:6],,,
{16},,,4x,,,,6,3,5,2,4,1>4[8:1],,,,
{16}1,,,,6,3,5,2,4h[4:1],,,,1,4,2,4,3,4,
{16}3,5,3,6,3,7,3xh[8:5],,,,,8x,,,
{16},,7xh[16:8],,,,,,,,A4,,,,7,4,
{16}6,3,5,2>5[8:1],,,,2,,,,7,4,6,3,
{16}5,2h[16:3],,,7,3,6,4,5,3,7,4,6,5,
(220)
{24}7h[8:1],,,3,,,3h[8:1],,,8,,,8h[8:1],,,2-5[6:1],,,,,2bx/7bxh[24:7],,,,
{24},,,,,,,,,,2V47[4:1]/8,,,2/8,,,2/8,,,,,,,,
{24},,,,,3/7V53[4:1],,,3/7,,,3/7,,,,,,,,,,,,,
{24}2x,,6x,,2xh[4:1],,,,,,4h[24:5],,,,,5h[24:6],,,,,,7bh[1:2],,,
{24},,,,,,,,{48},{24}2-5[8:1],,,2,,,2,,,,,,,,,,
{24},{48},{24},3-6[8:1],,,3,,,3,,,,,,,,,,,,1,,8,
{24},1h[8:1],,,,,7h[8:1],,,,,,3h[6:1],,,,,,,,5bpp8[4:5]/4bh[4:2],,,,
{24},,,,,,,,,,,,,,,,,,,,B2,,,
{24},,,B3/A3,,,,,,,,,,7bx,,,,,,E4f/7x,,,,,,
{24}B3/B4f/6x,,,,,,B4/B3f/E4/5x-8v1-4<1>5[4:13],,,,,,,,,,,,,,,,,,
{1},,
{4},,,,
||
3.春之声圆舞曲
{24},,,,,,,,,3>6p4[8:7],,,,,,,,,,,,,,,
{24},,,,,,,,,,,,,,,,,,,,,,,,
{24},,,,,,3h[4:3]/Ch[4:3],,,,,,,,,,,,,,,,,,
{2},
(210)
{24}3x/6x,,,,,,,,,,,2x>5[4:1],,,,5,,,6>2[4:1],,,7,,,
{24}7xh[24:7],,,,,,,,,,,,,2x/7x,,,,,,1,,,6x>3[4:1],,
{24},2,,,3>8[4:1],,,2,,,2h[24:12],,,,,,,,,,,,6>3[4:1],,
{24},,,,,,,,2h[24:11],,,,,,,,,,,1<5[3:1],,,,,
{24},,,,,2,,,,,3,,,,,5,,,,,7x/2xq7[2:1],,,,
{24}6,,,,,,5,,,,,4h[24:10],,,,,,,,,,3,,,
{24}2/6x,,,1x,,,1x<6[4:1],,,5,,,5h[24:11],,,,,,,,,,,4,
{24},,,,3/5,,,,2x,,,6x,,,7xp2[3:1],,,3,,,4,,,,
{24},,5bxh[24:14],,,,,,,,,,,,,,6,,,,,,3x/8x-4[4:1],,
{24},,,,,,,2,,,3,,,5,,,6,,,3h[4:1],,,,,
{24},8,,,,,3,,7,,4,,7,,3,,6>1[4:1],,,,,,,,
{24},,,,,,{32}A7,D7,A6,D6,A5,D5,A4,D4,A3,D3,A2,D2,A1f,,,,{24},,,,,,
(140)
{24}C/6h[12:5],,,,,,,,,,2,,,,5h[24:8],,,,2,,,,3,,
{24}A4,,,,7,,,,2,,,B1/6h[24:6],,,,,,B4,,,,A1,,,
{24},,5xh[24:4],,,,2,,,,3xh[6:1],,,,6,,,5xh[6:1],,3,,3,,,
{24}2xh[6:1]/6,,7,,7,,8x,,6xh[8:1]/1,,,2,,,3h[6:1],,,,{20}8b,2,1x,3,8,
{20}4,7,4,6,4,5x,3,5,2,5,1,5x,1,7,2,6,3,5,4x,8,
{20}2,7,3x,6,4x,5,3,6,2,6,1,5x,8,6,1,7x,,6x,,5x/4x,
{20},3x,,2x,,5xh[10:1]/1x,,2,3,4,5,6,7,8,1,2,{96}3,,{32}8bx,7,6,5,
{32}4,3,2,1,8,7,6,5/1bx,2,3,4,5,6,7,8,1,2,3,4,5,6,7,8h[8:1],,,,,,,,,1,2,3,4,5,6,7,8,
{32}1,2,3,4,{48}5bx,6x,7x,8x,1x,2x,3x,4x,5x,6x,7x,8x,,,,,,,,,{96},,,,
{1},,,
{24},,,,,,,,,,,,,,,,,,,,,,,,,,
||
4.无穷动波尔卡
(180)
{24}3,,,7,,,4,,,6,,,3,,,7,,,4,,,6,,,
{24}3h[8:1],,,7,,,4h[8:1],,,6,,,3h[8:1],,,7,,,4h[8:1],,,6,,,
{24}5h[8:1]/4,,,3,,,5h[8:1]/2,,,1,,,6xh[24:5],,,1,2,3,,,,4h[24:8],,,
{24}8x,,,7,6,5,,,,7,,,8x/3h[24:5],,,7,6,5,,,3,,,
{24}2/6,,,,,,3/7,,,,,,4/8h[2:1],,,6,,,1,,,3,,,
{24}4<7[8:1],,,,,,4/3,,,,,,1q5[8:1],,,,,,1/7,,,,,,
{24}4x>1[8:1],,,6,,,8,,,,,,5x<8[8:1],,,3,,,1,,,,,,
{24}2/7x,,,,,,4/5-8[8:1]*>2[8:1],,,,,,5,,,,,,,C,,,,,,
{24}8,,,1x,2,3,8,,,1x,2,3,7,,,2x,3,4,7,,,2x,3,
{24}4,8,,,3x,4,5,8,,,3x,4,5,8-4[8:1],,,,,8,,,,,,{48},
{24}1,,,8x,7,6,1,,,8x,7,6,2,,,7x,6,5,2,,,7x,6,
{24}5,1,,,6x,5,4,1,,,6x,5,4,1-5[8:1],,,,,1,,,,,{48},,,
{24}8,,,1x,2,3,8,,,7x,6,5,1,,,2x,3,4,8,,,6x,5,
{24}4,1,,,3x,4,5,8,,,6x,5,4,1h[4:1],,,,,,C,,,,,
{24}6/3,,{16},3,5,4,6,3,7,2,,8x/1x,,6,4,5,3,
{16}6,,1h[32:5],,{32},{16}8,2d,7,3,8q1[4:1],4,7,3,,,,,
{16}2h[8:1],,1x,,3,4,5,,6h[8:1],,5x,,7,8,1,,
{16}2,,1/8,,7,2,7,2,6,3,6,3,5h[32:8],,,,
{24}2h[4:1],,,,,,6h[4:1],,,,,,3h[4:1],,,,,,5h[32:12],,,,,,
||
chapter
3
(90)
{16},4h[16:5],,,6pp7b[8:5],,6bxqq5b[2:1],{8},,,,
{8},,,,6h[4:1],,3h[16:3],{16},4,
{8}4s8[4:1],,,,3h[4:1],B1,{16}C,2xw6[16:13],,,
{1},{48},
||
1.皇帝圆舞曲
{16}5/3,,,2,1-3[16:1]/6,,,7-4[16:1],1x-5[16:1],,7x,,1x,,,,
{16}6/4,,,7,8/3>8[16:1],,,7<4[16:1],3x-7b[16:1],,7x,,,,,{48},,
{16}1h[8:1],,7,,1h[8:1],,8v7-5[6:1],,2h[8:1],,8,,3h[8:1],,,,
{16}4-8[12:1],,2-5[12:1],,,,,,7-4[12:1],,5-1[12:1],,,,,,
{24}4x-7[12:1],1x,4x,1x-5[12:1],4x,1x,,,,,,,8x-4[12:1],5x,8x,5x-1[12:1],8x,5x,,,,,,,
{16}5h[8:3],,2,,4,,2,,4h[8:3],,7,,5,,7,,
{16}5h[8:1]/4,,3,,4/5h[8:1],,3,,4h[8:1]/5,,6,,4h[8:1]/5,,6,,
{16}5h[8:1]/3h[8:1],,,,2h[8:1]/7h[8:1],,,3,4xw8b[8:7]/5x,,4,,4,,,,
{1},
{12},,,,,,,
||
2.美酒,女人和歌圆舞曲
(124)
{12}1,,,,1/7x,,{16}2,5,3,3x,6,4x,7,5,
{24}8,7,6,5/4,3,2x,{16}1h[16:1],,5,2,6xh[8:1],,1x,2,3,4/5,,,
{16}5/6h[8:3],,7-2[12:1],,,,7,,,{32}5,,,,1bx,8x,7x,6x,5x,4x,7bx,6x,5x,4x,3x,2x,5bx,4x,3x,2x,1x,8x,
(130)
{12}7bx,,,,,,,,,,,B2,
{16}B8/B7,,,,,,,,,,6/5,,,,4,,
{16}6/5,,,7,,6/4,,3,,,5/3,,{12}6,5x/3x,2x,
{16}6x/1x,,5,,4-8[8:1]/2,,3,,4/6-4[8:1],,7>3[16:3],,,,,,
{16},7,,,,1qq6[2:1],,,2,,3,,4,,,5x,
{12},,4,{16},2,,8h[8:1],,1,8,,3/7,6,,4,
{16}8h[8:1],,5,7/4,{12},3,6,{16},4,6h[8:1],,5h[8:1],,4h[8:1],,
{16}3h[16:3],,,8h[16:3],,,1,,,1/7h[16:3],,,3,,,,
{16}7/5h[32:7],,,{32},8h[32:7],{16},,,{64}A6/D7/E7/B6,D6,A5,D5,A4,D4,A3,D3,A2,D2,A1,D1,,,,,,,,,
(150)
{16},1bx/6bx,,,{24},1/7,6xh[24:4],,,,2x,3,4,5-8[8:1],,,,,5/3,,,,
{24}2,,,7qq7[4:1],,8x,1xh[8:3],,,,,,,,,,,,8/2,,,1/3,,,
{24}2/4,,,,6/4,,,6/8,,,8/2h[24:5],,,,,1b,,,2xqq2>5[2:1]*qq6[2:1]/8x,7,6,5,4,3,
{24},,,,,,,,,,,,,,,8/4,,,,3/1-6[8:1],,,,,
{24}1-4[8:1],2,,,,1,,,,6,,,,3/7,,,8-3[8:1]/2,,,,6/1,,8x,,
{24},,7x,,,6x/2x,,,,5/1,,,2qq2[4:1]/7,,,7,6,5,4h[8:1]/2,,,,,,
{24},5,,,2/6,,,3/7,,,,4-1[12:1]/8-5[12:1],,,,4b/8b,,,,,,,,
||
3.闲聊波尔卡
(166)
{12}2x,2xh[24:11],,,,{24},1x,,1xh[24:11],{12},,,,8x,
{12}8xh[24:11],,,,,{24},7b,{12},,,,,,{24},
(103)
{16}1,{48}7x,6x,5x,,2,,,4,,,1,,,7x,6x,5x,,,{16}2,4,1,7/1,7/2,7/3,7/4,7h[8:1]/5-1[206#8:1],{48},,,
{48},,,,,8,,,{48}2x,3x,4x,,,{16}7,5,8,{48}2x,3x,4x,,,{16}7,5,{32}7x,5x,6x,4x,5x,3x,4x,2x,3x,1x,
{32}2x,1bx,,,
(190)
{16}8x,1x,8x<5[8:1],,2x/7x,,8>3[8:1]/1,,,,8-4[8:1]/7,,,,8/1,,
{16},,,5-2[8:1]/3,,6/4,,5-8[8:1]/7,,,,5/3,,,,{32},
{24}5x/7x,4x,3x,,,,1x-4[8:1]/5x,6x,7x,,,,{32}{16}1-6[8:1]/8,,,,1/2,,,,
{24},,2x/7x,3x,4x,,,,3x-8[8:1]/8x,7x,6x,,,,{16}3/4-7[8:1],,,,1/4,,,
{24},,,8x/2x,3x,4x,,,,,1x-3[8:1]/7x,6x,5x,,,,{16}1/4-8[8:1],,,,4/7-5[8:1],
{16},,,7/1,,,,,2/4-1[8:1],,3/5,,4/6-3[8:1],,,,
{16}6/2,,,,{24}2bx/5bx,3x/6x,4x/7x,,,,7bx/4bx,6x/3x,5x/2x,,,,,{16}1-4[8:1]/5,,6,,
{16}7/1,,,,8-5[8:1]/3,,2,,1/8,,,,{24},3x,4x,3x,4x,
{16}2x,,2x,,2x,,2x,,2x,,2xqq2[4:1]*qq2qq2b[4:2]*qq2qq2qq2[4:3],,2x,,6xh[8:1],,
{16},,6xh[8:1],,,,6xh[8:1],,,,,6pp6[4:1]*pp6pp6b[2:1],,6,,3xh[8:1],
{16},,,3xh[8:1],,,,{24},3bx,2x,1x,,,,6bxqq6[4:1]*qq6qq6b[2:1],7x,8x,,,,{16}2h[8:1],
{16},,,2h[8:1],,,,,{24}2bx,3x,4x,,,,,7bx,6x,5x,,,,
{16}3h[8:1],,,,3h[8:1],,,,{24}5x,4x,5x,,,,,3x,4x,3x,,,,
{24}6h[8:1]/4,,,,,,,6h[8:1]/4,,,,,,6h[8:1]/4,,,,,,3,,
{24},6,,,1h[8:1]/7,,,,,,1h[8:1]/7,,{16},,,1,8,1,,8,
{16}1,8,,1-5[8:1],,8/2,,1,,,,8-4[8:1],,1/7,,8,
{16},,,,3x/6x,,B6,E3,E8,,B1,,
{16}E8,,B1,,E8,,B1,,
(180)
{16}E8,3x,,4,,5,,6,,3,,4,,5,,
{16}6,,2,,4,,5,,7,,2,,4,,6,,8,
{24},1/2,,,2/3,,,3/4,,,4/5,,,5/6,,,6/7,,,7/8,,,8/1,,
{16}2xh[8:1],,4xh[8:1],,6xh[8:1],,8xh[8:1],,2bh[4:1],,,,1,,,,
{16}B2/B3/E3,,7,,4,5,4h[8:1],,5,,2/6,,7,1,
{16}8-4[8:1],,1,,8/2-5[8:1],,3,,2/6-1[8:1]*-3[8:1],,7,,6,,,,2/7,,
{8}1-5[8:1],2xh[4:1],,,8-4[8:1],7xh[4:1],,,
{16}3x,2x,1x-3[8:1],,1x-7[8:1],,1x-5b[8:1],,,,,,,,,,
||
wait
a
second
{1},
{16},,,,,4,5,4,5,3,6,3,6,2,7,2,7,3,6,4,8,2,7,3,5,1,6,3,5,3,4,2,5,3,6,4,7,2,1,3,8bx<5p4p5[1:3],,,,,,,,,
{1},,
||
4.闲聊波尔卡
{16},,,,,,,,,,,,,{24},{8}1-5[8:1],2xh[4:1],,,8-4[8:1],7xh[4:1]/1x,,,
{16}3x,2x,1x-3[8:1],,1x-7[8:1],,1xw5b[8:1],,,,,,,,,,{24},,
{1},,,
{2},
||
End
(93)
{24}3p7[2:1],,,5,,,5h[8:1],,,,,,,6,,,5,,,5h[16:2],,,,,
{16},1,7pp7[8:1],7,1,1,,,,3,7<4[16:1],7,2,2,,{48},E3,E2,E1,
{32},,,{64}5w1b[16:13],6,7,8,,,,,,{16},,,,,,,,
{24},,,,,,,,
E
