&title=Fermata in Rapsodia
&artist=ARCANA (三浦あずさ/如月千早/四条貴音)
&first=1.77
&des=白发红眼四条喵
&lv_5=13
&inote_5=(74.75)
{4}4<7[8:1],3,5>2[8:1],6,
7>2[8:1],6,3<6[8:1],1,
3-7[8:1]/6-2[8:1],36,1-5[8:1]/8-4[8:1],18,
4>1[8:1]/5<8[8:1],45,8<5[8:1]/4>1[8:1],84,
{12}6>8[8:1],,3,3,,3,3<1[8:1],,,6,,,
6qq5[8:1]/8>4[8:1],,7,68,,,4qq3[8:1]/6<2[8:1],,5,46,,,
6>8[8:1],,3,3,,3,3<1[8:1],,,6,,,
1-4[8:1]/8-4[8:1],,,18,,,5-8[8:1]/4-8[8:1],,,54,,,
1pp4[4:1],,,4pp7[4:1],,,7pp2[4:1],,,2<3[4:3]*>1[4:3],,,,,,,,,,,,,,,
{4}
3-1[8:1],3<7q3[4:1],7h[4:1],,
6-8[8:1],6>2p6[4:1],2h[4:1],,
{8}4-1[8:1],4x-7[8:1],,,8-3[8:1],8x-5[8:1],,,3<2<3[4:2],,7h[4:2],,,,,,
{24}7-4[8:1],,,5,5,,7,,8,,1,,2-5[8:1],,,4,4,,2,,1,,8,,
4-1[8:1],,,3,3,,6<3[4:1],,5,,5,,3>6[4:1],,,,5,,5,,,,,,
1V36[8:1],,,8,8,,7-3[8:1],,7,,7,,3V14[24:4]*pp4[24:4],,,,,,3,,,,,,
{12}4-7[12:1],3,2-5[12:1],,,2,1,8,7,
{24}6pp4[12:2],,,2,2,,
{24}4/6b,,,2,2,,1pp5[12:2]/7,,6,,5,,1b,,,7,
7,,1,,2,2,,,
3qq4[12:2],,,5,5,,3,,5,,6,,7qq8[12:2],,,1,1,,7,,2,,3,,
2>5[12:1]/6<1[12:1],,,5q4[8:1],5,,,,,,,,8x>6[8:1],,,6q5[8:1],6,,2,,,,,,
2qq7[4:1],,,3,3,,7pp2b[4:1],,6,,5,,4h[12:2],,,,,,
5-8[12:1]*-2[12:1],,,,,,5,,,1x,1,,
4-1[12:1]*-7[12:1],,35,,26,,4-8[12:1],,,8x,8,,4,,,,,,
2q3[12:2]/6q7[12:2],,,4,4,,,,,,,,4x/8x,,,,,,4w8[4:3],,,,,,
{4}4b,,,,
{24}1b/7b,,,,2,,3,,4,,5,,6,,3,4,3,,{48}5xp4>8[12:2],6x,7x,8x,1x,2x,3x,4x,5x,6x,7x,8x,
{24}Cf,,,,,,4q5<1[12:2],,,2,2,,Cf,,,,,,
8v5[12:1]/2v5[12:1],,,,1,,
8<5[12:1]/2>5[12:1],,,,1,,
2pp5[12:3]/8qq5[12:3],,,,1,,8/2,,,,,,A5f/D5/D6,,
2,,1,,8>3[8:1],,7,,6,,5,,
,,8,,1<6[8:1],,2,,3,,4,,,
,1,,1s5[8:2],,,,,,5s1[8:2],,6,,7,,8,,,,,,
7,,6,,5,,4pp7[12:2],,,3,3,,4w8[12:1],,,,,,4,,,,,,
6V84[8:2],,,,4,,4-6-8[8:2],,3,,2,,1-4[8:2],,,,1,,1b,,,,,,,,,,,,
2-6[12:1]/7,,,1,1,,7-3[12:1]/2,,8,,8,,2pp5[12:2]/7,,,1,1,,8,,7,,6,,
4-1-7[12:2],,,5,5,,2,,,,,,3V51[12:1],,1<7[24:1],,7,,
6-2b[24:1],,,,,,6xh[12:2],,,,,,1b-5b[24:1],,2b,,3b,,
4xh[12:2]/1b,,,,,,6b,,7b,,8b,,1-4[12:1],,,,5,,5,,,,,,
8-5[12:1]*z4[12:1],,,,,,8,,,,4,5,
3b>6[4:2]/6b<3[4:2],,,,,,,,,,,,,,,,,,,,,,,,
3-8[4:2]/7-3[4:2],
