&title=CODE NAME : GAMMA
&artist=NeLiME
&first=0
&des=Hisui
&des_5=Hisui
&des_7=Hisui
&lv_5=14+
&lv_7=藏
&inote_5=(210){4},,,,{8}1b,
2/8,,2/7V51[4:1],,2/7,,2,
,2/7,,1-5-7b[4:1]/2V48[4:1],,2/1,{24}B4,C,{6}B8,
{8}6x,5/1h[8:1],,1h[8:1]/4-7-5[4:1],,1/4,,1,
,8,8,1,{24}1w5b[8:1],2/8,3/7,4/6,{12},{4}1,
{8}8b,7/1,,7/2V48[4:1],,7/2,,7,
,7/2,,8-4-2b[4:1]/7V51[4:1],,7/8,{24}B5,C,{6}B1,
{8}3x,4/8h[8:1],,8h[8:1]/5-2-4[4:1],,8/5,,8,
{24}8,7,6,5/4,{12},{24}1,2,3,4v3[8:1]/5v6[8:1],{12},{2}3-1[8:1]/6-8[8:1],
{8}Cfh[4:7],E1,,E2,,E3,{4}E4/A3,
{8},E5,,E6,,E7,{4}E8/D8,
{8}Cfh[4:7],E5,,E4,,E3,{4}B2/A2,
{8},E1,,E8,,E7,{4}E6/D6,
{8}1,2-4[8:1],,2V84[4:1],,2/8,{4}7,
{8}7,6-8[8:1],,6V48[4:1],,6/4,{4}3,
{8}7/1,6,5/4,3,{16}2/1,8,7,6,5/1,2,3,4,
{1}5bV74-6-1[2:1]*V36-4-1b[2:1],
{8}2-6[8:1],8,2,{16}5,5,{8}4,8,7/1,6,
5/4,3,1/2-6[8:1],8,{2}7w3[8:1],
{8}1>4[8:1],4,1,{16}6,6,{8}5,7,2,1,
8/7,6,5/4-6-8[4:1],3,4/2,1-5[8:1],,1,
7-3[8:1],2,7,{16}4,4,{8}5,1,2/8,3,
4/5,6,8/7-3[8:1],1,{2}2w6[8:1],
{8}8<5[8:1],5,8,{16}3,3,{8}4,2,6,7,
8/2-6[8:1],1,2/8-5[8:1],1,8/4-8[8:1],3,2/4,1,
2-6[8:1],8,2V48[4:1],{16}5,5,{8}2,8,7,6,
1/5-1[8:1],2,5/3V17[4:1],4,{2}3/7-5[8:1]*-3[8:1],
{8}7-3[8:1],1,7V51[4:1],{16}4,4,{8}7,1,2,3,
4-8[8:1],5,{4}4/6,{8}7/1-5[8:1],2-6[8:1],1,2,
7b,8V62[4:1]*V62[4:1],,2b,{4}1V37b[4:1],{8}5b,6V41[4:1]*V41[4:1],
,4b,{4}3V58b[4:1],{2}8w4[8:1],
{8}2/6,2/6,1/5,1/5,{16}2,6,3,7,{24}4qq2>8b[4:3]*pp6>8[4:3],8,4,8,4,8,
{1},{4}C,
{8}7-5-1b[4:1]*-4-2-8[8:3],7,{2}7,
{8}6>4[8:1],6,{4}6pp5[8:3]/4qq5b[8:3],{2},{4}C,
{16}2x-4-8b[4:1]*-5-7-1[8:3],2x,2x,2x,{2}2x,
{4}6-8[8:1],8-5[4:1]*z4b[4:1],{2},{4}C,
{8}1,1,8/2-8[8:1],2/8-2[8:1],{4}2xV46[4:1],
{16}6xV42[4:1],7x,{8}8x,{4}2-6[8:1],,7,
C,{8}8,8,1/7-1[8:1],7/1-7[8:1],{4}7V53[4:1],
3V57[4:1],7-3[8:1],,{8}1h[16:1],1h[16:1],
{4}C,{8}2-4-8b[4:1]*-5-7-1[8:3],2,{2}2,
{8}3<5[8:1],3,{4}3qq4[8:3]/5pp4b[8:3],{2},{4}C,
{16}7x-5-1b[4:1]*-4-2-8[8:3],7x,7x,7x,{2}7x,
{4}3-1[8:1],1-6[4:1]*z5b[4:1],{2},{4}4xh[4:1],
{8}8,8,1/7,7/1,2/6,{16}3/7,2/6,
{4}1/5h[4:1],{8}1,1,2v5[8:1]/8v5[8:1],2/8,{4},{8}3/7,
3/7,4/8,4/8,{16}7,3,6,2,5,1,5,1,
{1}5-7-1v8b[2:1]*-3-1v2[2:1],
{8}1/8x,2>5[8:1],,6,{4}7>2[8:1],{8}3,4<7[8:1],
,8,{4}1>4[8:1],{16}4,5,6,7,{4}8/5,
{8}8/1,7<4[8:1],,3,{4}2<7[8:1],{8}6,5>2[8:1],
,1,{4}8<5[8:1],{16}5,4,3,2,{4}1/Cf,
{8}8/1x,7<6-4b[8:1],,4,{4}2<1-7b[8:1],{8}7,5>4-2b[8:1],
,2,{4}8<7-5b[8:1],{16}5,4,3,2,{4}1/4,
{8}1/8,2>3-5b[8:1],,5,{4}7>8-2b[8:1],{8}2,4<5-7b[8:1],
,7,{4}1>2-4b[8:1],{16}4-8b[8:1],5,6,7,{4}8/B4f,
{1},{4}7-3[8:1],
1-4[4:1]*-6[4:1],{2},,,{4}2-6[8:1],
1-7-5-3[8:3],{2},,,{4}8-5[8:1],
8>5[16:5],{2},{1}2<3[8:5]/7>6b[8:5],
{2}Cf/E2/B1/E1/B8/E8/B7/B6/E6/B5/E5/B4/B3/E3/B2/E4/E7,{16}1,8,1,8,{24}2,3,4,8,7,6,
{8}2b,{16}4,3,{8}5-1[8:1],6,5/7,{16}8,8,{8}2-6[8:1],1,
2/8V64[4:1],1,8/3,2,{4}1-5b[8:1],{8}1b/5,6b,
3b/7,{16}2,8,{8}1-5[8:1],8,7/1,{16}6,6,{8}4-8[8:1],3,
4/2-5[8:1],1,2/6-2[8:1],7,{4}6/4p8[8:1]*V28b[8:1],4b,
{8}7b,{16}5,6,{8}4-8[8:1],3,4/2,{16}1,1,{8}7-3[8:1],8,
7/1V35[4:1],8,1/6,7,{4}8-4b[8:1],{8}8b/3,2b,
5/1,{16}6,5,{8}8,{16}3,4,{8}1,2/8,7/3V15[4:1],4/6,
{4}3/5V73b[4:1],4,{8}5w1b[8:1],5,{32}B5f,C,{16}B1/B8/B2,{8},7,
3b/7bV53b[4:1],,7b/3b<8b[4:1],,8bV63b[4:1],,3bV58b[4:1],
,8bp2b[4:1],,3b,2,1,{4}8b/E1f,
{8}2,6b/2bV46b[4:1],,2b/6b>1b[4:1],,1bV36b[4:1],,6bV41b[4:1],
,1b-3-5-7b[8:3],,6b,7,8,{4}1b/E1f,
{8}7,8/6b,2,3b/1,4,{16}6,5,{8}7,{16}3,4,
{8}2,3b/1,7,8/6b,5,{16}3,4,{8}2,{16}6,5,
{8}7,{16}1,8,{8}2,{16}4,3,{8}5-1[8:1],6,5/7V53[4:1],8,
{4}3p7[4:1]*V17[4:1],{2},{4}E1f,
{8}1/8,7/2b-8b[8:1],{16}3,4,{8}2bV48[4:1],{16}6,6,{8}2,{16}8,7,{8}6,
6-4b[8:1],{16}5b,5,{8}6V84[4:1],{16}8b,8,{8}6,{16}4,3,{4}2bh[4:1],
{8}6b,2/7b-1b[8:1],{16}6,5,{8}7bV51[4:1],{16}3,3,{8}7,{16}1,2,3,4,
{4}1bx<6[8:1]/5bx>2b[8:1],5b-8b[8:1]/1b-4[8:1],5b/1b-5b[8:1],1b/Cf,
{8}2b/6b,1V37[4:1]*V37[4:1],,7b/1b,{4}8V62b[4:1],{8}4b/8b,3V58[4:1]*V58[4:1],
,5b/3b,{4}6V41b[4:1],{2}6b/1w5[8:1],
{8}3/7,3h[16:1]/7h[16:1],4/8,4h[16:1]/8h[16:1],{16}7,3,6,2,{24}5<7-2b[4:1],1,5,1,5,1,
{4}5bx/2bx<8-5b[4:1],{8}5b,5,4b-7b[8:1],3b,2bw6b[8:1],1b,
{1}2bp1[4:5]*p8b[4:5],
{4},,,1b<8z4<5b[8:1]/8b>1s5>4[8:1],
{32}1b/8b,E1f,C,E5,
E
&inote_7=(210){4},,,,{8}1b,
2/8,,2/7V51[4:1],,2/7,,2,
,2/7,,1-5-7b[4:1]/2V48[4:1],,2/1,{24}B4,C,{6}B8,
{8},5/1h[8:1],,1h[8:1]/3-7-5[4:1],,1/3,,1,
,8,1,8,{24}1w5b[8:1],2/8,3/7,4/6,{12},{4}1,
{8}8b,7/1,,7/2V48[4:1],,7/2,,7,
,7/2,,8-4-2b[4:1]/7V51[4:1],,7/8,{24}B5,C,{6}B1,
{8},4/8h[8:1],,8h[8:1]/6-2-4[4:1],,8/6,,8,
{24}8,7,6,5/4,{12},{24}1,2,3,4v3[8:1]/5v6[8:1],{12},{2}3V57[16:3]/6V42[16:3],
{8}B8/Cfh[4:7],E1,B7,E2,B6,E3,{4}E4/A3/B5,
{8}B4,E5,B3,E6,B2,E7,{4}B1/E8/D8,
{8}B8/Cfh[4:7],E5,B7,E4,B6,E3,{4}B5/B2/A2,
{8}B4,E1,B3,E8,B2,E7,{4}B1/E6/D6,
{8}8-3[8:1],6,,2,1-6[8:1],3,,8,
7-4[8:1],5,,1,2-5[8:1],4,,7,
8/1,7,6/5,4,{16}3/2,1,8,7,6/1,2,3,4,
{1}5bV74-6-1[2:1]*V36-4-1b[2:1],
{8}2-6[8:1],8,2,{16}5,5,{8}4,8,7/1,6,
5/4,3,1/2-6[8:1],8,{2}7w3[8:1],
{8}1>4[8:1],4,1,{16}6,6,{8}5,7,2,1,
8/7,6,5/4-6-8[4:1],3,4/2-6[8:1],1,{4}2,
{8}7-3[8:1],1,7,{16}4,4,{8}5,1,2/8,3,
4/5,6,8/7-3[8:1],1,{2}2w6[8:1],
{8}8<5[8:1],5,8,{16}3,3,{8}4,2,6,7,
8/2-6[8:1],1,2/8-5[8:1],1,8/4-8[8:1],3,2/4,1,
2-6[8:1],8,2V48[4:1],{16}5,5,{8}2,8,7,6,
1/5-1[8:1],2,5/3V17[4:1],4,{2}3/7-4[8:1]*-2[8:1],
{8}7-3[8:1],1,7V51[4:1],{16}4,4,{8}7,1,2,3,
4-8[8:1],5,{4}4/6,{8}7/1-5[8:1],2-6[8:1],1,2,
7b,8V62[4:1]*V62[4:1],,2b,{4}1V37b[4:1],{8}5b,6V41[4:1]*V41[4:1],
,4b,{4}3V58b[4:1],{2}8w4[8:1],
{8}2/6,2/6,1/5,1/5,{16}2,6,3,7,{24}4qq2>8b[4:3]*pp6>8[4:3],8,4,8,4,8,
{1},{4}2x,
{8}7-5-1b[4:1]*-4-2-8[8:3],7,{2}7,
{8}6>4[8:1],6,{4}6pp5[8:3]/4qq5b[8:3],{2},{4}7x,
{16}2x-4-8b[4:1]*-5-7-1[8:3],2x,2x,2x,{2}2x,
{4}4V28[4:1],8-5[4:1]*z4b[4:1],{2},{4}5xh[4:1],
{8}1,1,8/2-6[8:1],2/8-4[8:1],{4},{16}3xV57[4:1],
2x,{8}1x,{4}7V53[4:1],,1,
4xh[4:1],{8}8,8,1/7-3[8:1],7/1-5[8:1],{4},6V42[4:1],
2V86[4:1],5,{32}3x,D3,2x,D2,1x,D1,8x,D8,
{4}7x,{8}2-4-8b[4:1]*-5-7-1[8:3],2,{2}2,
{8}3<5[8:1],3,{4}3qq4[8:3]/5pp4b[8:3],{2},{4}2x,
{16}7x-5-1b[4:1]*-4-2-8[8:3],7x,7x,7x,{2}7x,
{4}5V71[4:1],1-6[4:1]*z5b[4:1],{2},{4}4xh[4:1],
{8}8,8,1/7-3[8:1],7/1-5[8:1],{4},{16}6xV42[4:1],
7x,{8}8x,{4}2V46[4:1],,8,
{8}3/7,3/7,4/8,4/8,{16}7,3,6,2,5-7-1-4-8b[4:3]*-3-1-6-2[4:3],1,5,1,
{1},{8}1/8x,
2>5[8:1],,5,{4}7>2[8:1],{8}2,4<7[8:1],
,7,{4}1>4[8:1],{16}4,5,6,7,8/5,4,3,2,
{8}8/1,7<4[8:1],,4,{4}2<7[8:1],{8}7,5>2[8:1],
,2,{4}8<5[8:1],{16}5-1b[8:1],4,3,2,{4}1/B5,
{8}8/1x,7<6-4b[8:1],,4/7,{4}2<1-7b[8:1],{8}7/2,5>4-2b[8:1],
,2/5,{4}8<7-5b[8:1],{16}5/8,4,3,2,1/4,5,6,7,
{8}1/8,2>3-5b[8:1],,5/2,{4}7>8-2b[8:1],{8}2/7,4<5-7b[8:1],
,7/4,{4}1>2-4b[8:1],{16}1/4-8b[8:1],5,6,7,{4}8/B4f,
{1}Ch[4:3],
{4}7-3[8:1],1-4[4:1]*-6[4:1],{2},{1}Ch[4:3],
{4}2-6[8:1],1-7-5-3[4:1],{2},{1}Ch[4:3],
{4}8-5[8:1],8>5[4:1],{2},{1}2-4v5-7[8:5]/7-5v4-2b[8:5],
{2}Cf/E2/B1/E1/B8/E8/B7/B6/E6/B5/E5/B4/B3/E3/B2/E4/E7,{16}2,7,2,7,{24}1,8,1,8,1,8,
{8}2b,{16}5,4,{8}5-1[8:1],6,5/7,{16}8,8,{8}2-6[8:1],3,
2/8V62[4:1],1,8/2-5b[8:1]*-7[8:1],1,{4},{8}4/8b,8/4b,
3/7,{16}2,8,{8}1-5[8:1],8,7/1,{16}6,6,{8}4-8[8:1],3,
4/2-5[8:1],1,2/6>3[8:1],7,{2}6q2[8:1]*V82b[8:1],
{8}5b,{16}4,5,{8}4-8[8:1],3,4/2,{16}1,1,{8}7-3[8:1],6,
7/1V37[4:1],8,1/7-4b[8:1]*-2[8:1],8,{4},{8}5/1b,1/5b,
5/1,{16}6,5,{8}8,{16}3,4,{8}1,2/8,7/3V15[4:1],4/6,
3/5V73b[4:1],4,3,4,5w1b[8:1],5,{32}B5f,C,{16}B1/B8/B2,{8},7,
7b/3b<8b[4:1],3,3b/8bV63b[4:1],8,3bV58b[4:1],3,8bp3b[4:1],
8,3bq8b[4:1],3,8b,7,6,{4}5/D1f,
{8}2,2b/6b>1b[4:1],6,6b/1bV36b[4:1],1,6bV41b[4:1],6,1bq6b[4:1],
1,6bp1b[4:1],6,1b,2,3,{4}4bh[8:1]/D1f,
{8}7,8/6b,2,3b/1,4,{16}6,5,{8}7,{16}3,4,
{8}2,3b/1,7,8/6b,5,{16}3,4,{8}2,{16}6,5,
{8}7,{16}1,8,{8}2,{16}4,3,{8}5-1[8:1],6,5/7V53[4:1],8,
{2}3p7[4:1]*V17[4:1],{16}B7,C,{8}B3,{4}D1f,
{8}1/8,7/2b-8b[8:1],{16}3,4,{8}2bV48[4:1],{16}6,6,{8}2,{16}8,7,{8}6,
6-4b[8:1],{16}5b,5,{8}6V84[4:1],{16}8b,8,{8}6,{16}4,3,{4}2bh[4:1],
{8}6b,2/7b-1b[8:1],{16}6,5,{8}7bV51[4:1],{16}3,3,{8}7,{16}1,2,3,4,
{4}1bx-7[8:1]/5bx-3b[8:1],5b/1b,{32}1b/5b,2x/6x,3x/7x,4x/8x,5x,6,7x,8x,{4}1b/Cf,
{8}2b/8b,1V37[4:1]*V37[4:1],,7b/1b,{4}8V62b[4:1],{8}4b/8b,3V58[4:1]*V58[4:1],
,5b/3b,{4}6V41b[4:1],{2}6b/1w5[8:1],
{8}3/7,3h[16:1]/7h[16:1],4/8,4h[16:1]/8h[16:1],{16}7,3,6,2,{24}5<7-2b[4:1],1,5,1,5,1,
{8}5b/2b<8-5b[4:1],3,5b,4,{32}3bV57b[8:1],2,1,8,3b,2,1,8,{4}3b/7bw3b[8:1],
{1}7xq8[4:5]*q1b[4:5],
{4},,,1b<8z4<5b[8:1]/8b>1s5>4[8:1],
{32}1b/8b,E1f,C,E5,
E
