&title=デュアルメモリ
&artist=ここなつ
&first=0
&des=霊風
&lv_5=12+
&inote_5=(162)
{1},
{8},,,,,,3/1-5[8:1],2,
{1}1bqq3[2:3]/7,
{1}5h[2:1],
{2}4/7,2/8,
{8}1/7h[4:1],,3,,4h[4:1]/6,,8-4[8:1],7,
{1}8qq5[2:3]/3,
{1}3h[2:1],
{2}3h[4:1]/5h[4:1],1h[4:1]/2h[4:1],
{8}8/3,7,6>8[4:1]/4h[4:1],5,6,,,,
{16}3,4,3,,6,5,6,,3,4,3,,7,4,6,,
{16}2,4,2,,7,5,7,,2,4,3,,8,5,7,,
{16}1,1,1,,7,7,7,,3,3,3,,5,5,5,,
{32}2,3,4h[16:1],,8,7,6h[16:1],,1,2,3h[16:1],,7,6,5,,{16}3,4,2-5[8:1],4,3h[8:1],,2,,
{16}1bw5[8:1],,,,1b,,,,{24}7,6,5,4,3,2,1,8,7,6,,,
{8}1-4[8:1],2,8<5[8:1]*>3[8:1],7,8,,2,3,
{16}4h[16:3]/6,,,5h[16:3],,,3,,3h[16:3],,,7h[16:3],,,1,,
{16}1/8,,2,,1/8,,7,,2/6,,{32}1,2,3,4,5/6,,,,6,,,,
{8}7/4,,7h[2:1]/4h[8:5],,,,,,
{8}3h[2:1]/5,6,8,7,6h[4:1],,5,4,
{16}3<6[8:1]/8,,2,1,3,,7,,7v4[8:1]/8,,6,1,7,,2,,
{16}3/5,,2,4,2,,1/6,,7qq5[8:1],8,7,8,7,,,,
{16}2/6,,,,2/6,,,,3/5,,3h[4:1],5,,,5,,
{16}3,5,4,6,3,5,4,6,3>8[8:1]*-7[8:1],,,,3,,,,
{16}1/5,,,,1/5,,,,6/8,,6h[4:1],8,,,8,,
{16}6,1,7,2,8,1,7,2,8,,,1/7,,,2/6,,
{16}7/3,,,,7/3,,,,6/4,,6h[4:1],4,,,4,,
{16}6,4,5,3,6,4,5,3,6<1[8:1]*-2[8:1],,,,6,,,,
{16}8/4,,,,8/4,,,,3/1,,3h[4:1],1,,,1,,
{16}3,8,2,7,1,6,8,5,{24}7,8,1,2,3,4,1-5[8:1],8,7,6,5,4,
{8}1,,4-6[8:1]/6-8[8:1],7,4/6,,7-5[8:1]/5,7,
{4}7/8-4[8:1],1-3[8:1]/8,1/2,{8}4>1[8:1]/6,5,
{8}4/6,,5<8[8:1]/3,4,3/5,,2-6[8:1]/1,3,
{4}7-3[8:1]/2,7/1-5[8:1],1/8,{8}7-4[8:1]/4,6,
{8}7/4,,2-8[8:1]/5,3,2/5,,5-3[8:1]/1,3-7[8:1],
{8}5/1>4[8:1],2,1<6[8:1],8,1,,3<6[8:1]/5,2,
{8}3/8-5[8:1]*-6[8:1],,8-2[8:1]*-3[8:1],,8,,4,3h[4:1]/5h[8:3],
{16},,,,3,,4,5,4,,3/7,,1/5,2/6,3/7,4/8,
{4}1/5>7[8:5],,6>4[8:1],,
{4}8<3[8:5],,1<7[8:1],,
{16}3h[8:3]/6,,,,,,5,3,5,,6h[8:1]/1pp3[8:1],,1,,,,
{16}6V48[4:1],,,4,,,2,,2h[8:1],,,,7h[8:1],,,,
{4}8/4>6[8:5],,5>3[8:1],,
{4}7>5[8:5],,6<8[8:1],,
{8}7/4,7,7/4,4,{16}6,5,6,5,6z2[8:5],5,6,5,
{8}6,,,,,,1>3[8:1]/8-3[8:1],2,
{8}1b-6[8:1]/8b<6[8:1],,1b>4[8:1]/8b,,1b/5h[4:1],,{24}6,7,8,1,2,3,
{16}5,4,6,3,5v8[8:1],4,6,3,5,,,,1>5[4:1]/7,,6,,
{4}1/5<1[4:1],1>5[4:1],5<1[4:1],1,
{8}5-1[8:1],4>2[8:1],5<7[8:1],4,5,,8<6[8:1]/1-6[8:1],7,
{8}8b-3[8:1]/1b>3[8:1],,8b<5[8:1]/1b,,8b/4h[4:1],,{24}3,2,1,8,7,6,
{16}4,5,3,6,4v1[8:1],5,3,6,4,,,,8<4[4:1]/2,,3,,
{4}8/4>8[4:1],8<4[4:1],4>8[4:1],8,
{8}4>2[8:1],5<7[8:1],4-8[8:1],5,4,,{24}5-1[8:1],4,3,2,1,8,
{4}7<4[8:1]/5,7/2-6[8:1],3-8[8:1]/2,{8}3/4,4,
{16}5,1,5,2,5>2[8:1],3,5,4,5h[8:1],,,,5<8[4:1]/1,,,,
{4}5/8V64[4:1],4q1[4:1],1pp3[4:1],3,
{8}2pp4[8:1],4>1[8:1],2<7[8:1],5,6,,1h[8:1]/6h[8:1],,
{16}7b-4[8:1]/8b-4[8:1],7b/8b,7b/8b,,7/8,,,,3h[8:1]/5h[8:1],,,,3/4,,3,,
{16}2,4,2,5,2-7[8:1],6,2,7,2,,,,1>4[4:1]/6,,5,,
{4}1/4V28[4:1],8q5[4:1],5pp7[4:1],7,
{24}6,5,4,3,2,1,4/8,5,6,7,8,1,{16}6,3,6,3,8-4[8:1],2,8,2,
{1}8pp4[2:3],
{1},
{2}3h[2:1],4h[2:1],
{2}5h[2:1],6h[2:1],
{8}3,,3h[4:1],,7h[4:1],,2,1,
{8}8,7,6,5,4h[2:1],,1,1,
{4}1-5[8:1],7-3[8:1],5-1[8:1],3,
{8}2/8,5,2-6[8:1]/8p5[4:7],,2bq5[2:3]/8,,,,
{1},
{2},{16}6,5,7-4[8:1],5,6h[8:1],,7,,
{16}8bw4[8:1],,,,8b,,,,{24}2,3,4,5,6,7,8,1,2,3,,,
{8}8-5[8:1],7,1>4[8:1]*<6[8:1],2,1,,7,6,
{16}5h[16:3]/3,,,4h[16:3],,,6,,6h[16:3],,,2h[16:3],,,8,,
{16}7/1,,6,,8/2,,3,,4/6,,{32}8,7,6,5,4/3,,,,3,,,,
{8}2/5,,2h[2:1]/5h[8:5],,,,,,
{8}6h[2:1]/4,3,1,2,3h[4:1],,4,5,
{16}6,6,5,5,4,4,3,3,2,2,1,1,8,8,7,7,
{16}6,,3,4,3,,2/5,,1-5[8:1],5,3,7,1b,
