&title=Dual Dependency
&artist=seatrus
&first=0.05
&des=yuUuKa
&des_5=
&lv_5=14
&inote_5=(155){4},,,,{1}7bh[8:7]/1>8[2:3],
5bh[4:3],
{8}1,5,{16}2,4,3,5,4,6,,6,,4,5,3,
{8}4,{16}3,1,2,8,1,7,8,6,,6,,4h[8:1],,,6b,
5,6,5,7,1,8,2,4,3,5,2,4,3,,6h[8:1],
,5,{8}7,4,{16}6,3,6,5,6,2,6,5,6,1,
{4}7bh[4:1],{16}8,6,1,7,{4}2bh[4:1],{16}1,3,8,2,
{8}7,{16}3,4,3,4,1,8,4,5,1,8,5,6,,,{8}2/4,
3,7/5,6,2/4,1,7/5,8,
{16}3,4,3,7,3,4,3,8,3,3,3,8,3,3,{8}3,
1/5,1,8/4,8,7/3,3,6/2,6,
{16}1/5,2,3,4,1/5,2,3,4,5,6,7/8,1,2,3,4,5,
{4}6/7>5b[16:3],{32}B7,B8,B1,B2,B3,B4,{16}B5,{8}6<1[8:1],2,{32}6/2,3,4,5,,,,,{8}8-6[8:1],
{32}2,3,4,5,{4}8,{8}3>8[8:1],7,{32}3/7pp4[8:3],6,5,4,,,,,{2}C,
{8}1-3[8:1],{32}7,6,5,4,{4}1,
{8}1-6[8:1],6<3[4:1],{4}1/5-1b[8:1],5,{16}3,4,2,5,
{4}1pp4[16:3],C,{32}8>3[8:1],7,{16}6,{8}3h[8:1],8,5,
{32}7>2[8:1],6,{16}5,{8}3h[8:1],7,5,{32}8>3[8:1],7,{16}6,{8}3h[8:1],8,5,
{24}E2,B1,B8,E8,{48},,,,{16}3,1,2,8,1,7,8,6,1,7,2,8,
3,4,{8}2,{16}6,5,{8}7,{16}2,1,{8}3,{16}7,8,6,1,
{8}5bh[8:1],{16}4,6,5,5,5,5,{32}2-4[8:1],1,{16}8,{8}5-8[8:1],2,5,
{32}3-5[8:1],2,{16}1,{8}6-1[8:1],3-1[8:1],6-8[8:1],3-8[8:1],6-1[8:1],3,6,
{4}2qq4[4:1],C,{32}7-5[8:1],8,{16}1,{8}4-1[8:1],7,4,
{32}6-4[8:1],7,{16}8,{8}3-8[8:1],6pp5[8:5],3,{16}6b,,,3b,,,{8}2b,
{4}1b,{24}E2,B2,B3,E4,{96},,,,,,,,{32}8>3[8:1],7,{16}6,{8}3h[8:1],8,5,
{32}7>2[8:1],6,{16}5,{8}3h[8:1],7,5,{32}8>3[8:1],7,{16}6,{8}3h[8:1],8,5,
{12}2,1,3,7,8,6,2,1,3,7h[4:3],,,,,,,,,{2}3h[2:1],
{8}B7/B6,{16}B2,B7,{4}Ch[16:11],{16},,,,,,,6p5[16:9],
,,,,,,,,,,,,{8}E2/B2,E8/B7,
{16}E3,B3,B4,E5,,,E7,B7,B8,E1,,,E2,B1,{8}6h[8:3]/B8,
,8,{16},7,6,8,7,1,8,2,1,3,{8}4,
{4}2b/5b,{16}B2,B3,B4,B5,8,7,6,5,B1,B2,B3,B4,
7,6,5,4,3,2,1,8,7,5,6,4,5,3,4,2,
{2}8b/1bs5[1:1],{8}5,6,7,8b,
,,,,4,5,{16}3,6,{8}3,
4b/5b,{16}3,4,{8}3,4,3,5,{16}3,4,{8}3,
6,4,6,{16}4,5,4,5,{8}4,{32}8,7,6,5h[32:5],,,,,2,
3,4,5,,,{16}7,8,,,7,8,,,6,{8}5,{16}8,1,
{8}8,3,{24}5,4,5,4,,,6,5,6,5,,,{4}8/7,
{16}4/5,,,6,{8}5,7,{16}1,8,{8}1,{12}6,6,6,
{24}1,2,3,7h[8:1],,,2,3,4,8h[8:3],,,{8}2,3,{4}4b,
{8}6,5,6,{16}4,5,4,,,6,{8}5,{16}7,8,
{8}7,2,{16}8,1,8,1,8,1,{8}8,{4}3b,
{16}3b,4,3,4,2,8,1,7,5,6,4,7,5,6,,3h[8:1],
,4,{8}2,5,{16}3,6,3,4,3,7,3,4,3,8,
{4}2bh[4:1],{16}1,3,8,2,{4}7bh[4:1],{16}8,6,1,7,
{8}2,{16}6,5,6,5,8,1,5,4,8,1,4,3,,,{8}7/5,
6,2/4,3,7/5,8,2/4,1,
{16}2,4,3,5,4,6,5,7,4,6,3,5,2,4h[8:1],{32},,,,7x,
8x,{16}1x,{8}5xh[8:1],{32}8x,1x,{16}2x,{8}6xh[8:1],{32}1x,2x,{16}3x,{8}7xh[8:1],{32}2x,3x,{16}4x,{8}8xh[8:1],
{16}3b,4,5,6,7<7[2:1],8,1,2,3/7,A6,A5,A4,A3,A2,A1,A8,
{4}Cf/A7,{16}1,7,1,7,2,6,2,6,3,5,3,5,
4,4,4,4,4,4,4,4,4b,4b,4b,4b,{4}4b-8b[8:1],
4b,{16}2h,4,1,8,5h,7,1,8,2,4,1,8,
5h,7,5,7,1,8,2,4,1h,8,5,7,1,8,2,4,
{4}1bw5[8:1],1,7<5[8:1],7/8q4[8:1],
8/1p5[8:1],1/2v3v2[8:3],{2}2,
8qq5[16:3],{32}1<6[8:1],2,{16}3,{8}6h[8:1],1,4,
{32}2<7[8:1],3,{16}4,{8}6h[8:1],2,4,{32}1<6[8:1],2,{16}3,{8}6h[8:1],1,4,
{24}E8,B8,B1,E2,{48},,,,{16}7,5,6,4,5,3,4,2,5,3,6,4,
7,8,{8}6,{16}2,1,{8}3,{16}6,5,{8}7,{16}3,4,2,5,
,,1,1,1,1,1,1,{32}6-8[8:1],5,{16}4,{8}1-4[8:1],6,1,
{32}7-1[8:1],6,{16}5,{8}2-5[8:1],7-5[8:1],2-4[8:1],7-4[8:1],2-5[8:1],7,2,
{16}8b,{32},,,,7x/3x,6x/2x,{4}5x/1x,{16}1b,{32},,,,2x/6x,3x/7x,{4}4x/8x,
{16}4,8,3,7,2,6,1,5,{8}E8,C,{4}E4,
{8}1/5,1,8/4,8,7/3,3,6/2,6,
1/5,1,8/4,8,7/3,3,6/2,6,
{16}1,5,1,5,2,6,2,6,3,7,3,7,4,8,4,8,
{4}5b/1b<2s6b[8:5],,,Cf,
{8}6h[8:1],{16}2,4,3,5,4,6,,1,{8}8<5[8:1],{16}2,2,{8}8,
{16}3,2,1,7/8,6,5,{8}4/3,8-5[8:1]*-3[8:1],8,{4}8,
{16}1b,5,4,5,4,5,4,5,1b,5,4,5,4,5,4,5,
1b,5,4,5,7b,5,4,5,1b,5,4,5,{4}7b,
{8}3h[8:1],{16}7,5,6,4,5,3,,8,{8}1,{16}7,7,{32}1,2,{16}3,
{8}7-3[8:1],6,7/8-4[8:1],1,8/7-3[8:1],6,{4}8/7,
{8}2,{16}5,6,7,8/1,2,3,4,6,3,5,4,6,3,5,
4/C,,,7/C,,,{8}2/C,{32}7,6,5,4,3,2,1,8,7/2h[32:1],6,5,4,3,2,1,8,
{8}3/7<4[8:1],{16}1,1,{8}7,{16}2,2,{8}8<5[8:1],{16}3,3,{4}8,
{8}1>4[8:1],{16}4,4,{8}1<6[8:1],{16}6,6,{8}1>4[8:1],{16}4,4,{8}1,{16}7,7,
{8}2>5[8:1],{16}5,5,{8}2<7[8:1],{16}7,7,{8}2>5[8:1],{16}5,5,{8}2,{16}7x,8x,
1x,2x,3x,4x,5x,6x,2,4,3,5,4,6,5,7,,,{8}3-1[8:1],
{16}4,4,{8}3,B8/B1,6-8[8:1],{16}5,5,{8}6,B8/B1,
2-4[8:1],{16}1,1,{8}2,B5/B4,7-5[8:1],{16}8,8,{4}7,
{16}2h[8:1]/4h[8:1],,,7h[8:1]/5h[8:1],,,{8}2h[8:1]/4h[8:1],{16},2/4,,1/8,2,7,3,6,
E2,B1,B8,E8,E6,B5,B4,E4,B2,B3,B4,B5,B6,B7,B8,B1,
6,5,6,5,7,1,8,2,4,3,5,2,4,3,,6h[8:1],
,5,{8}7,4,{16}6,3,6,5,6,2,6,5,6,1,
{4}7bh[4:1],{16}8,6,1,7,{4}2bh[4:1],{16}1,3,8,2,
{8}7,{16}3,4,3,4,1,8,4,5,1,8,5,6,,,{8}2/4,
3,7/5,6,2/4,1,7/5,8,
{16}7,5,6,4,5,3,4,2,5,3,6,4,7,5h[8:1],{32},,,,2x,
1x,{16}8x,{8}4xh[8:1],{32}1x,8x,{16}7x,{8}3xh[8:1],{32}8x,7x,{16}6x,{8}2xh[8:1],{32}7x,6x,{16}5x,{8}1xh[8:1],
{16}6b,5,4,3,2>2b[2:1],1,8,7,6/2,A3,A4,A5,A6,A7,A8,A1,
{1}A2/Ch[4:1],
E
