&title=风
&artist=Guiano feat.理芽
&first=-0.1
&des=江风
&lv_5=13
&inote_5=(98)
{8},
(196)
{4},
(98)
{4}2-5[8:1],7-3[8:1],1<4[4:1],,
{4}7-4[8:1],2-6[8:1],8>5[4:1],,
{4}2-6[8:1],7-4[8:1],8>5[4:1],,
{4}7-3[8:1],2-5[8:1],1<4[4:1],{8},2,
{8}2q5[4:1],,5>7[4:1],,7,6,5h[4:1],C,
{8}4^1[8:1],{16},,4^7[8:1]
,,,,4p4[4:1],,,8,8,,7,,
{16}7p4[4:1],,,4,4<2[4:1],,,2,{8}2,3,4h[4:1],C,
{8}5x<8[8:1],5x>2[8:1],5x-1[8:1],5x,5x,{16},2,,8,8,1,
{8}2qq6[4:1]/7,,6<4[4:1],{16}5,5,,,6,,7h[4:1],,B5/B6,,
{16}8,7,1,6,2,5,3,4,25,,,1,1,,82,,
{8}7pp3[4:1]/1,,3>5[4:1],{16}4,4,,,3,,2h[4:1],,B4/B3,,
{8}8x<5[8:1],8x>3[8:1],8x-4[8:1],8x,8x,{16},3,,25,,8,
{16}1b<4[16:3],2,3,,4bV61[16:3],3,2,,1b,2,3h[16:3],,,2,,4,
{8}3qq4[16:5]/5,E5,E6,E7,{16}E8,,6,5,,47,,1,
{16}8b>5[16:3],7,6,,5bV38[16:3],6,7,,8b,7,6h[16:2],,7,6,5,4,
{16}3bx/6bx,,{32}4,5,4,,{16}2bx/7bx,,{32}1,8,1,,{16}3bx/6bx,,{32}4,5,4,,
{8}2>5[8:1]/7,1,{16}2/8,,B6,,{8}7<4[8:1]/2,8,{16}7/1,,B3,,
{16}1,8,2,7,1,8,1,8,{8}2>4[12:1]/7<5[12:1],18,2/7,{16},45,
{8}3>8[8:1]/6,4,{16}35,,B7,,{8}6<1[8:1]/3,5,{16}6/4,,B2,,
{16}4,5,3,6,1,,8,1,{8}8v3[8:1],3>8[8:1],8<5[8:1],4,4,3,
{8}25,{32}3,4,3,,{8}2>5[8:1]/6,1,82,B7,{32}6,5,6,5,6,,,,
{16}4,5,3,6,{8}2>4[12:1]/7<5[12:1],18,27,{32},,4x,5x,{8}4>x1[8:1],5,
{8}46,{32},,8x,1x,{8}8x<5[8:1],1,28,B4,
{16}5,4,6,3,5,,{32}3,4,3,,{8}25,1,{8}7v4[8:1],4<7[8:1],7pp3[4:2],3,
{4}B8/E1f/B1,,2h[4:1],{16}4,4,3,3,5h[8:1],,3,4,2,2,8,8,
{8}1v6[8:1],6<1[8:1],1>4[8:1],4qq8[8:3],
5h[8:2],,,7,7h[8:2],,{16}1h[8:1],,7,8,6,6,4,4,5,4,6,3,7,7,1,1,
{8}8v3[8:1],3>8[8:1],8<4[8:2],,,
2,2h[8:2],,{16}8,8,1,1,7h[8:1],,5,6,4,4,7,7,
{8}2v5[8:1],5>2[8:1],2qq6[8:3],7,7h[8:3],,,,,{16},8,8pp4[8:3]*qq4b[8:3],,4,,
{4}8b,,{32}6xh/4xh,,,7xh/3xh,,,7xh/3xh,,
{8}8x/2x-5[12:1],71,1b/2b,
{32}1x,8x,7x,,{8}6-1[12:1]/4,35,56,{32}5x,4x,3x,,
{16}7,8,6,6,4,5,3,3,{8}2-5[12:1]/6-1[12:1],37,2b/6b,{16},8,{8}8>5[16:3],2/6h[8:1],
{8}8,{32},,7x,8x,{8}1x<4[16:3],3h[8:1]/7,1,{32},,2x,1x,
{16}8x,6,5,7,3,,{32}2,8,2,,{8}37,5,1x>4[12:1],1x<6[12:1],1x-5[12:1],1x,1x,,
{8}3-8[12:1]/5,64,43,
{32}4x,5x,6x,,{8}17,28,
{16}4,5
,2,8,{8}7-4[12:1]/3-8[12:1],62,7b/3b,{16},1,{8}1<4[16:3],7/3h[8:1],
{8}1,{32},,2x,1x,{8}8x>5[16:3],6h[8:1]/2,8,{32},,7x,8x,
{16}1x,3,4,2,6,,{32}7,1,7,,{8}62,4,8x<5[12:1],8x>3[12:1],8x-4[12:1],8x,8x,,
{8}8/2-5b[12:1],68,8/2,
{32}8x,7x,6x,,
{16}4,5,3,3,4,4,2,2,{8}5-2b[12:1]/1-6b[12:1],37,1b/5b,{16},1,{8}1V74b[8:1],7/3h[8:1],
{8}1,{32},,2x,1x,{8}8xV25b[8:1],6h[8:1]/2,8,{32},,7x,8x,
{16}1x,3,4,2,6,,{32}7,1,7,,{8}35,18,7x^4[12:1],7x-3[12:1],7x^2[12:1],7x,7x,,
{8}3-8b[12:1]/5,75,35,
{32}4,5,6,,{8}17,31,
{16}7,7,8,6,{8}5-2b[12:1]/1-6b[12:1],37,1b/5b,{16},5,{8}5V38b[8:1],3/7h[8:1],
{8}5,{32},,6x,5x,{8}4xV61b[8:1],2h[8:1]/6,4,{32},,3x,4x,
{16}5x,6,1,8,27,,{32}1,8,1,,{8}72,45,1x>4[12:1],1x<6[12:1],1xv4[12:1]*v6[12:1],1x,1bx,
