&title=STNC
&artist=非可逆リズム
&first=0.04
&lv_5=14+
&des_5=西行寺幽幽子
&inote_5=
(202){4},{12},,,,,,4x,5x,4x,
5x,4x,5x,4x,{24}5x,4x,{12}5x,4x,5x,4x,Cf,{1},{4},,{16},,{24},{16}4,
5,4,5,{4}3h[4:1]/6h[4:1],
{8},7h[4:1]/4h[4:1],{16},,,,8,5,8,5,{8}8h[8:1],{16}5,8h[8:1],
,4,{8}8h[8:1],{16}3,8h[8:1],,2,8,7,6,5,{4}4/Cf,
{1},{4},,{16}1,
8,1,8,2b/7b,,,4b/5b,
,,{8}6b/1b,{16},8b/3b,,,{8}5b/4b,5b<8[8:1]/4b>1[8:1],,,,8bx-4[8:1]/1bx-5[8:1],
,,,,7b/4b,{16}6,5,
{8}6,{16}5,7,4,6,{8}3,{16}2,4,{8}3,5b/2b,{16}3,4,
{8}3,{16}2,4,3,5,{8}4,{16}7,5,{8}6,7b/4b,{16}6,5,
{8}6,{16}4,7,3,8,{8}2,{16}1,2,{8}1,3b/8b,{16}2,1,
{8}2,{16}8,1,{4}8x-4[8:1]/1x-5[8:1],8x/1x,{8}6/3,6/3,
6/2,6/2,6/1,6/1,6/8,{16}6/8,1,{8}2/5,2/5,
2/6,2/6,7/2,7/2,8/2,{16}8/2,7,{8}6/2,6h[8:1]/2h[8:1],
{32},7x/3x,8x/4x,5x/1x,,,,,{8}5/1,5/1,{32}5b/1b,8/4,7/3,6/2,,,,,{4}1bxs5[4:1],
{8},7bxs3[4:1],,,,,{4}E8,
,C,,E4,
,,,E2,
,C,,E6,
,,,E1,
,B7/E3/E7/B6/C,,B2/B3/E3/C/E7,
,E5,E4,E3,
E2,E1,,B7/B6/B2/B3/Cfh[2:1],
{16},,,,,,,,,,,,1,8,1,8,
{8}1,{16}6,5,6,5,{8}6,{16}3,4,3,4,{8}3,{16}5,4,
5,4,{8}5,{16}4,5,3,6,2,7,1,8,2,1,2,1,
{8}2,{16}7,8,7,8,{8}7,{16}3,4,3,2,{8}3,{16}6,5,
6,7,{8}6,{16}1-5[16:1],8,{8}1,{16},,,,6,5,6,4,
{8}6,{16}3,4,3,5,{8}3,{16}7,5,6,4,{8}5,{16}2,4,
3,5,{8}4,{16}6,5,6,4,6,3,6,2,{8}6x/2x,6/2,
7/1,7/1,{16}8x,8x,8x,8x,{32}8x,7,6,5,4,3,2,1b,,,,,,,,,,,,,,,,,{16}1b,
2,3,4,1b,8,7,6,{4}5-7[8:1]/1-3[8:1],
5-2[8:1]/1-6[8:1],5-1[8:1]/1-5[8:1],5/1,8/4,
{8}6b/2b,4b/8b,{16},,1,2,3/4,5,6,7,{4}8b-4[8:1]/1b-5[8:1],
8/1,{8}6/3,4>1[8:1]/8<5[8:1],,8/4,,E6,
{4}E2,C,E8/E4,1>4[8:1]/5<8[8:1],
5/1-5[8:1],1>4[8:1],1/8,5/1,
{8}7b/3b,5b/1b,{16},,8,7,6/5,4,3,2,{4}1b-5[8:1]/8b-4[8:1],
1/8,{8}3-7[8:1],7>3[8:1],,5-1[8:1],,5,
,2>5[8:1],,2,{16}6x,7x,8x,1x,{4}2bx-6[8:1],
2/8<5[8:1]*>3[8:1],8-4[8:1],8>3[8:1]/4<7[8:1],8/4x,
{8}4b-8[8:1],8b>4[4:1],{16},,4x,5x,6x,7x,8x,1x,{4}2b-6[8:1],
2b,{8}7b/5b,3b/1b,,2b/7b,{16}1,8,1,8,
1,8,1,8,1,8,2,7,1,2,3,4,{8}5x,{16}5,6,
{8}5,{16}5,6,5,6,{8}5,{16}5,6,{8}5,4x,{16}4,5,
{8}4,{16}4,5,4,5,{8}4,{16}4,5,4,5,3,6,3,6,
2,7,2,7,1,8,1,8,1,8,1,8,{32}2b,E3,B3,B4,{16}E5,{32}6b,E7,
B7,B8,{16}E1,{32}4b,E4,E3,E2,{16}E1,{32}7b,E7,E6,E5,{16}E4,{32},1b,B1,C,{8}B5,{4}6h[4:1],
{8},5h[4:1]/7h[4:1],,,,3h[4:1],,,4h[8:1]/2h[8:1],
{16},,,,3,3,{4}3,7h[4:1]/4h[4:1],
{8},6h[4:1]/5h[4:1],,,,3h[4:1]/8h[4:1],,,7h[8:1]/5h[8:1],
{16},,,,6,6,{4}6,{8}6h[4:1],5,
4,3h[4:1],4,5,,6h[8:3],,5,
4,3h[4:1],2,1,,8,1>4[8:1],8,
7,6<1[8:1],5,4,{16}2,3,{8}4,,5v8[8:1],
4,5,{12}2,2,2,6,6,6,1-5[6:1],,,{4}1/8,
{16}4,3,2,1,8,7,6,5,{4}4-8[8:1],
4,{16}1,2,3,4,5,6,7,8,{4}1-5[8:1],
1-7[8:1]/2-6[8:1],1-5[8:1]/2-4[8:1],2/1,8<5[8:1],
{8}8,4,,5,{16}4,3,2,1,{8}8/7,8/7,
8/6,8/6,8/5,8/5,4/8,{16}8/4,5/1,{8}6/2,2/6,
3/7,7/3,4/8,8/4,5/1,5/1,{16}4,8,4,8,
3,7,3,7,2,6,2,6,1,5,1,5,{4}1h[2:1],
{32}5h[4:1],,,,,,,,,2,3,4,5,6,7,8,{4}1b,{16}2,1,2,1,
{4}2-5[8:1],2<7[8:1]/7<4[8:1],2/7-3[8:1],1-5[8:1],
1>4[8:1]/6<1[8:1],6/1,{16}5x,4x,3x,2x,{4}8b<5[16:1]/1b>4[16:1],
8b/1b,{8}6b/3b,1b-5[8:1]/8b-4[8:1],,8b/1b,,E4,
{4}B1/E2,E8,E6/B5,7bv2[8:1],
7<4[8:1]/3>8[8:1],7-3[8:1]/3-7[8:1],7/3,6b/2b,
{8}7b<5[8:1]/3b>1[8:1],5bv8[8:1]`1bv4[8:1],{16},,,,,A7/A3,A6/A2,A5/A1,{4}8bxq4[8:1]/4bxq8[8:1],
8/4,{8}7/3,6-3[8:1]/2-7[8:1],,6/2,,,,,{4}5b/1b,
{16}1/5,2/6,3/7,4/8,{4}5-2[8:1]/1-6[8:1],
5/1,1-4[8:1]/5-8[8:1],5/1,6/2,
{8}3-7[8:1],7-3b[8:1],{16},,,,5,6,7,8,,,{8}1b/8b,
{16},7b/6b,,,5b/4b,,,3b/2b,,,,5b/4b,,,4,5,
3,6,3,6,2,7,2,7,1,8,7,6,{8}5/2,{16}3,4,
{8}3,{16}7,8,7,8,{8}7,{16}4,5,{8}4,4/7,{16}6,5,
{8}6,{16}2,1,2,1,{8}2,{16}8,1,{8}8,{16}1,8,2,7,
3,6,4,5,3,4,2,5,1,6,8,7,1x,2,3,4x/8bx,
5,6,7x/3bx,8,1/5bx,2x,3,4,{4}5x/1bx,7h[4:1],
5,{8}4,5,,3h[4:1],,5,
{4}5,4-8[8:1],,E1,
E2,E3,E4,E5,
E6,E7,E8,E1/D1,
E2/D2,E3/D3,D4/E4,C,
3<6[4:1],6>3[4:1],,B8/A8,
A7/B7,B6/A6,B5/A5,B4/A4,
B3/A3,B2/A2,B1/A1,D8,
D7,D6,D5,{8}C,3,
3,4,4,5,5,6,{4}6h[4:1]/E5,
{8}E4,6h[4:1],{4}E3,6h[4:1]/E2,5h[4:1],
4h[4:1],3h[4:1],2h[4:1],1h[4:1]/E1,
{8}E8,1h[4:1],{4}E7,1h[4:1]/E6,E5,
E3,E1,E7,{16}5,6,5,6,
{8}5,{16}1,2,1,2,{8}1,{16}3,4,3,4,{8}3,{16}7,8,
7,8,{8}7,{16}1,2,3,4,5/1,8,7,6,4,5,4,5,
{8}4,{16}7,8,7,8,{8}7,{16}2,1,{8}2,8,8,
8,8,8,8,8,{16}8,7,{8}6,6,
6,6,6,6,6,{16}6,5,{8}4,4,
4,{16}4,3,{8}2,2,2,2,{16}8,1,8,1,
7,2,7,2,{8}Cf,6x,7x,8x,{4}1b/5b,
{8},,,1,2,3,{4}4b/7b,
{8},,,7,6,5,4b/2b,1,
8,7,6,5,4,3,{4}2b/1b,
{8},,,5,6,7,{4}8b/1b,
{8},,,1,2,3,{4}4b/6b,
{8},,,5,6,7,8b/3b,4,
5,6,7,8,1,2,{4}3b/7b,
{8},,,1,2,3,4b/7b,{16}6,5,
{8}6,{16}5x,6,5x,4,{8}5x,{16}4,3,{8}4,5b/2b,{16}3,4,
{8}3,{16}4x,3,4x,5,{8}4x,{16}5,6,7,8,{8}1b/3b,{16}2,2,
{8}2,{16}2,1,2,1,{8}2,{16}1,8,7,6,{8}5b/3b,{16}4,4,
{8}4,{16}4,5,4,5,{8}4,6/3,7/2,1,1,
1,1,1,1,1,{16}1,2,{8}3/5,5,
5,5,5,5,5,{16}5,6,{4}7/1-5[1.7822##0.1485],
{8},,,,,,,6b/4b,
7b/3b,8b/2b,{4}1b,{8}4,6,{16}4,3,2,5,
6,7,3,2,1,6,7,8,2,1,7,8,1b,,,8b,
,,{8}7b/5b,{4}4b/2b,{8}3,6,{16}3,4,2,6,
5,7,3,4,2,6,5,7,1,8,1,8,1,7,1,6,
1,5,1,4,1,5,1,6,1,7,1,8,{4}1h[8:3],
{24},,,5b,2/6,3/7,{4}4/8h[8:3],{24},,,4b,7/3,6/2,{4}5/1-5[8:1],
1/8-4[8:1],8/2-6[8:1],{8}8,8,{4}7/5,
5/3,3/1,1/7,{16}6b/5b,,,2b/1b,
,,{8}4b/3b,{4}7b/8b,{8}2,6,{16}3,4,3,5,
4,5,4,6,{4}5,{8}7,5,{16}6,5,6,4,
5,4,5,3,{4}4,{8}3,7,{16}2,8,1,1,
2,8,1,1,2,8,2,8,3,7,4,6,{48},,,,,,{24}5/1,4/8,3/7,
{4}6b/2b,{16}1,1,8,8,2,2,7,7,3,4,3,4,
{8}2,{16}7,5,7,5,{8}6,{16}2,1,2,1,{8}3,{16}6,4,
6,4,{8}5,{16}2,3,4,5,1,8,7,6,{8}3-8[8:1],3,
4,5,6-1[8:1],6,5,4,2-5[8:1],2,
1,8,7-4[8:1],7,8,{16}3,2,{8}8/1-5[8:1],8,
7/1,{16}6,7,{8}1/8-4[8:1],2,3/8,{16}3,2,{8}1/8,8/7,
7/6,6/5,5/4,4/3,3/2,2/1,8/1b>4[16:9],8,
7,7,6,6,5,{32}5b,6,7,8,{8}1b<6[16:7],2,
3,3,4,4,5,{32}5b,4,3,2,{8}1b,1,
1,{32}1,2x/8x,3x/7x,4x/6x,{8}5x,5,5,{32}5b/1b,6/2,7/3,8/4h[32:9],,,,,,,,,,,{16}4,
3,2,{32}1b,2,3,4,5b,6,7,8,1b,2,3,4,5b,6,7,8,{4}1b,
{1},{4},{8},{16}8b/1b,
8b/1b,{2}2bq5b[4:13]`7bp4[4:13],
{4},,,,,,,,,,,,,B7/B6/E7,
B2/B3/E3,{8}3/8,{16}2,1,
2-5[8:1],1,{8}2,2/8-4[8:1],7,8/1,2,6/1,{16}7,8,
7-4[8:1],8,{8}7,7/1-5[8:1],2,1/8,7,6/4,6/4,
7/3,7/3,{16}2,8,2,8,{24}1,1,1,1,1,1,{8}2x/8x,7x/3x,
6x/4x,5x,{12}6b/2b,6x/2x,6x/2x,8b/4b,8x/4x,8x/4x,8b-4<7v5[4:27]/4bv2>5-1[4:27],{1},,,,,,,{4},,,{6},{4}E1,
,B2,,E4,
,,,E5,
,B6,,Cfh[1:5],
E
