&title=Corpse Dance
&artist=森羅万象
&first=0.03
&des=yksetuna
&lv_5=13
&inote_5=(145){1},
{8}2h[8:2]/6,,4,,7h[8:2]/3,,5qq2[4:3],,
{1}8h[4:3],
{8}7h[8:2]/3,,5,,2h[8:2]/6,,4pp7[4:3],,
{4}1h[8:3],,2h,2h,
{8}3h[8:2]/5,4,4,,6h[8:4]/4,5,5,,
{4}7pp2[4:2],,,,
{8}6h[8:2]/4,5,5,,3h[8:4]/5,4,4,,
{4}2qq7[4:2],,4h,4h[8:5],
{16},,,,,,6,6pp3[16:6],5,,,4,,,,,
{16}2b,,,,1,,2/8,,,,3,,2/4pp3[8:3],,,,
{8}1,,2,2h[4:1],,1,2/8,,
{8}5qq4[8:2]/7,,6,6h[4:1],,5,7,4,
{8}3pp6[4:2]/6,,8,8h[8:3],,,,,
{8}6qq3[4:2]/3,,1,1h[8:3],,,,,
{16}2,,2,,8,1,8,1,7,,7,,1,8,1,8,
{8}2qq6[4:2],,,,,,,,
{8}57,,4,3/5pp4[8:3],,2,2,,
{8}1,,4,3/5,,6,5,7,
{8}4pp2[8:3]/8,,1,1,,8,7,1,
{8}8/6pp4[8:3],,1,2,,2,2,5,
{8}1pp4[4:2]/4,,,,,6,7,8qq5[4:2],
{8},,,,,3,{16}2h[16:3],,,,
{16}7h[8:1],,8,,6,1,5,1,4h[8:1],,2,,3,8,4,8,
{8}5qq4[8:3]*pp6[8:3],,,,,,,1,
{8}2pp3[4:1]/8,,6,7,8qq7[4:1],,3,2,
{8}1pp2[4:1],,8qq4[8:3],,,,1,,
{16}2h[16:3],,4,4,3,,4/5,,3/6,,2/7h[8:10],,,,8,,
{8}8,6,5,4qq6[8:3],,,,,
{16}8pp1[6:1],,,,4,,4h[8:2],,,,8,8,1,,7,,
{16}56,,,,3,,42,,,,5,,46,,3,,2,,
{16}1,,5,3,6,4,7,,8,,4,6,3,5h[16:44],2pp6[8:4],,1,,,,,,,,,,,,,,
{8}7h[8:12],,,,,,,,{16},,,,,,,,,,8,8,7,,1/6,,
{8}2b/5b,,3,3qq3[4:1],,4,5,6,
{8}7h[4:1],,6,6pp6[4:1],,5,4,3,
{8}2h[4:1],,3h[4:1],,1,2pp1[8:2]/8qq1[8:2],,,
{8},,7,4/6h[4:1],,{16}3,3,4pp5[6:1],,2,,
{8}3qq2[6:1],,4,4,,3,5,4,5qq4[6:1]/6,,7,6pp7[6:1],,5,4,3,
{16}2h[8:1],,4h[8:1],,3,5,4,6,5h[8:1],,7h[8:1],,5,6,4,5,
{8}3,3,2/4,2/4,1pp3[8:1]/5pp7[8:1],,1/5,,
{8}2pp1[2:3]/6h[4:2],,,,,7,,7h[8:7],,,,,,,,,
{8}6pp5[2:3]/2h[4:3],,,,,,,3h[8:7],,,,,,,,,
{8}2pp8[4:5],,5,,6,,7,7h[8:7],{1},
{8}7qq1[4:5],,4,,3,,2,2h[8:7],,,,,,,{16},,3,4,
{8}2,5pp2[2:2],,1,,2,,3h[8:7],,,,,,,{16},,6,5,
{8}7,4qq7[2:2],,8,,7,,6h[8:7],,,,,,,{16},,1,1,
{8}8,2qq7[2:2],,6,,5,,4h[8:8],,,,,,,,8pp4[8:10]*qq4[8:10],
{8},,,,,,,,,,,,,3,5,2pp2[8:10]/6pp6[8:10],,,,,,,,,,,,,,1/5,1/5,1/5,
{16}1bqq8[4:1]/5b,,,,8pp1[4:1],,,,5,,5,,6qq3[8:3],,,,
{8}2,,1,1h[4:1],,8,2pp1[4:1]/8h[4:1],,
{8},,7,6/8pp4[8:3],,5,6,7,
{8}7h[4:1],,1,2pp1[4:1]/8,,8,7,6,
{16}5,,7/8,,1,6,1,6,2,,7/8,,6,1,6,1,
{8}5pp8[8:3],4,2pp4[8:1],,,,31,,
{8}2h[4:1],,8,1/7h[4:1],,6,5pp6[4:1]/7,4,
{8}3,,2,2h[4:1],,3,4qq3[4:1]/2,5,
{8}6,,8,7qq6[6:1],,1,2pp3[6:1],,
{8}8,7,6,5h[16:5]/1,,{16}2,2,4,,3,,
{8}1b/5b,,4,3qq2[6:1],,5,6pp7[6:1],,
{8}4,3,2,1h[16:6]/5,,4,4,3,
{16}3h[8:1],,5h[8:1],,2,1,2,1,3h[8:1],,5h[8:1],,2,1,2,1,
{8}3pp6[8:3],6,7pp1[8:1],,,,48,,
{16}6h[8:1],,5h[8:1],,7,4,7,4,6h[8:1],,5h[8:1],,7,4,7,4,
{8}8qq1[8:3],3,2pp4[8:1],,,,2b/3b,,
{16}34,,34,,2,5,2,5,34,,34,,2,5,2,5,
{8}1pp8[8:3],6,7qq5[8:1],,7,,7b/6b,,
{16}78,,78,,6,1,6,1,78,,78,,6,1,6,1,
{8}5pp4[8:3],2,3qq1[8:1],,3,,3b/2b,,
{16}87,,61,,5,2,4,3,52,,61,,7pp5[16:16],8,6,1pp3[16:13],,,,
