&title=上弦の月?
&artist=黒うさP(feat. KAITO)
&first=0
&des=返魂の魔女
&clock_count=4
&lv_6=13
&inote_6=(92.00)
{1},
{16}2,,5,5,4q1[8:3],,7>6[8:9],,
,,,,,,,,
{8},,,,,,,,
{16}8,,1,1,7-4[8:2],,2V41[16:5],,
,,,,,,,,
{16}7h[8:2],,1,2,3h[8:2],,6,5,
4w8[8:1],,2/6,,,,,,
{16}1h[8:2],,8,8,7>2[6:1],,6,,3<7[16:3],,,,,,,,
{16}1/8,,3,3,5p1[8:1],,
6,6,5>2[8:1]*<7[8:1],,,,,,,,
{16}8h[8:2],,1,1,2qq1[16:3],,3,,5pp4[8:2],,,,,,,,
{16}2h[16:3],,8,7h[16:3],,1,3h[8:1],,
4v7[8:1]*>1[8:1],,2/6,,,,,,
{16}8h[16:1],7h[16:1],6h[16:1],5h[16:1],7h[16:1],6h[16:1],5h[16:1],4h[16:1],
6h[16:1],5h[16:1],4h[16:1],3h[16:1],5h[16:1],4h[16:1],3h[16:1],2h[16:1],
{8}1<6[8:1],,1/3V51[16:3],{16},,{8}7V53[16:3],6,,,
{8}2-5[8:1],1-6[8:1]/5,,,4<7[8:1],2/5,{16}1,2,3,4,
{8}8/5>2[8:1],,1>6[16:3],8,7-3[8:1],{16}8-5[8:1],,,,,,
{8}2bqq6[8:4]*qq6[8:4],,,,,,,,
{8}7h[8:4],,,5-8[8:1],5h[8:4],,,1V74[8:2],
{8}1,,,2,2,,6,5/7,
{8}4>2[12:1]/8,,7<5[12:1],,1`2,,3,4/5,
{8}5/6-3[8:1],,1q4[8:3],,,,,,
{8}6h[8:4],,,4-7[8:1],4h[8:4],,,8q1[8:3],
{8}8,,,2,2,,4,3/5,
{8}2-5[8:1]/6,,1v4[8:1],,7`6,,3/5,4/6,
{8}5/7-2[8:1],,3z7[16:5],,,,,,
{8}2/6p4[8:3],,3,4>6[8:4],1h[8:2],,,6pp2[8:4],
{8}5h[8:2],,,4,4,,1/3,3,
{8}2>6[8:2]/5,,6p8[8:2],7,8>4[8:2],,5,6,
{8}7V53[8:2],,3V58[8:2],2,1,2,3,,
{8}7/4qq5[8:3],,6,5<3[8:4],8h[8:2],,,3qq4[8:4],
{8}5h[8:2],,,7,7-3[8:1],,1v6[8:1],,
{64}2<3[8:3],3,4,5,,,,,{8},,,,,1h[8:1]/5h[8:1],,
{16}2/6,2/6,2/6,2/6,
7/3p7[8:1],3/7p3[8:1],3/7>2[8:1],7/3<6[8:1],
,,,,
,,,,
{16}4bV27[16:3]/8b,,6,5,4<2[8:2],5,6,,
,,,,5,,3/7,,
{16}4/8p3[48:8],,1/2,,6h[8:1],,,,
7,7,8,8,1/6,,3/4,,
{16}2/5V74[16:3],,3,4,5-1[8:1],,,,
2<7[8:1],,3,4,5-8[8:1],,3,,
{16}1p5[8:1],,4,,3q7[48:7]*<7[48:7],,2,,
,,,,{64}8b,7b/1b,2b/6b,5b/3b,4b,,,,{16},,
{16}6V84[16:3]/2,,3,4,5>7[8:2],4,3,,
,,,,4b,,5/6b,,
{8}3bp5[16:3]/7b,1b/8b,6bqq4[48:8]*<3[48:8],,,,2h[8:1]/5,{16}8,,
{32}7/1bqq6[8:2],2,3,4,
5,6,7,8,
1,,,,
,,,,
{16}8p2[6:1],,4/7<3[6:1],,,,,,
{8}1v7[8:1]*v4[8:1],2/5,,,{32}8z4[6:1],3,8,3,8,3,8,3,8b,,,,,,,,
{16}1pp1[16:3],,2/5,,7,,8<5[8:1],8,
,3,3,4,4,,5,1,
{16}8/2h[8:1],,4,,6h[8:1]/3,,5,5,
8h[8:1],4,2,5h[8:1],3,1,7/8,,
{16}2/6pp5[8:2],,4/5,,1,,3qq1[48:7],3,
,6,6,7,7,,2,1,
{16}3/8h[8:1],,5,,3h[8:1]/6,,4,4,
1h[8:1],5,7,4h[8:1],6,8,2/1,,
{16}3>1[12:1]/7,,8-3[8:1],7,6,,5,,
6<8[12:1],6,1-6[8:1],,2,,4,3,
{16}2<8[12:1],,7q3[8:1],,6v4[8:1],,,,
,,1,1,5,,3/7,,
{16}2-7[12:1]/6,,8/1>4[8:1],,,,1b-5[8:1],,
,,6,,8,,4/7,,
{16}2-5[12:1]/6,,1b/4b,,,6bV82[16:3]*<5[16:5],,,
3b/7b,,,,,,,,
{8}6pp4[8:12]/3qq2[32:29],,,,,,,,
{8},,,,,,,,
{8}1h[8:2]/2-4[12:1],,,,6`5-1[8:1],7,8-4[8:1],,
{8}2q8[16:5]*>8[16:5],,,,,,4`7,,
{16}5/1h[8:4],,,,6,,8,,
2h[8:4],,,,7,,1,,
{8}3h[8:2],,4h[8:2],,5h[8:2],,6pp2[8:3],,
{8},,,,1<5[6:1]/8>4[6:1],3/6,,,
{32}4b,5,3,6,
4,5,3,6,
4-1[8:1],5,3,6,
4,5,3,6,
4V61[16:3],,,,
,,,,
2,,,,
3,,,,
{8}4>7[8:2],5/6,7>4[8:2],,4,{16}6,6,{8}5-8[8:1],3/7,
{16}1-6[8:1],,3,4,5v8[8:1],,3,,
1<6[8:1],2,3,4,5p8[6:1],,2q6[8:1],,
{8}5>7[16:3],,,,{32}2-6[48:5],6,1,5,2,6,1,5,
2b,,,,,,,,
{16}7V15[16:3]/3,,4,5,6>8[8:2],5,4,,
,,,,4,,7/2,,
{8}1>6[16:3]/6,{32}5,6,7,8,{8}1-5[8:1]*pp8[16:3],,,,4h[8:1],{16}1,,
{32}2/7bp4[8:2],6,5,4,
3,2,1,8,
7,,,,
,,,,
{16}1v7[8:1],,6/2V46[6:1],,,,,,
{8}8z4[6:1],7/3>6[6:1],,,5h[16:16],,,,
{8},,,{32},,1,2,{8}3h[16:4],{32},,8,7,{8}6-2[12:1]*-2[12:1],,
{8}1b,,,,,,,,
{8},,,,,,,,
E
