&title=フォールオブフォール ~ 秋めく滝
&artist=上海アリス幻樂団
&first=0
&des=Acadm
&clock_count=4
&lv_2=3
&lv_3=7
&lv_4=11
&lv_5=13
&inote_2=(163){1},
,
{1},
{1},
(326){1},
(163)
{2}1,1,
{1}2,
{2}3,3,
{1}4,
{2}8,8,
{1}7,
{2}6,6,
{1}5,
{2}4,4,
{1}3,
{2}2,2,
{1}1,
{2}5,5,
{1}6,
{2}7,7,
{1}8,
{1}3h[1:2]/4h[1:2],
{1},
{1},
{1},
{1}6h[1:2]/5h[1:2],
{1},
{1},
{1},
{1}2h[1:2]/1h[1:2],
{1},
{1},
{1},
{1}7h[1:2]/8h[1:2],
{1},
{1},
{1},
{2}4,4,
{1}3,
{2}2,2,
{1}3,
{2}5,5,
{1}6,
{2}7,7,
{1}6,
{2}1,1,
{2}2,2,
{2}3,3,
{1}4,
{2}8,8,
{2}7,7,
{2}6,6,
{1}5,
{2}4,4,
{2}3,3,
{2}2,2,
{1}1,
{2}5,5,
{2}6,6,
{2}7,7,
{1}8,
{1}4-1[4:11],
{1},
{1},
{1},
{1}8-5[4:11],
{1},
{1},
{1},
{1}4>1[4:11],
{1},
{1},
{1},
{1}8<5[4:11],
{1},
{1},
{1},
{2}1,1,
{2}2,2,
{2}3,3,
{1}4h[2:1]/5h[2:1],
{2}8,8,
{2}7,7,
{2}6,6,
{1}5h[2:1]/4h[2:1],
{2}4,4,
{2}3,3,
{2}2,2,
{1}1h[2:1]/8h[2:1],
{1}2q5[4:11]*q5[4:11],
{1},
{1},
{1},
{1}8b,
&inote_3=(163){1},
,
{1}4h[1:1]/5h[1:1],
{1},
(326){1},
(163)
{4}2,2,2,,
{4}3,3,3,,
{1}4h[1:1],
{1},
{4}7,7,7,,
{4}6,6,6,,
{1}5h[1:1],
{1},
{4}3,3,3,,
{4}2,2,2,,
{1}1h[1:1],
{1},
{4}6,6,6,,
{4}7,7,7,,
{1}8h[1:1],
{1},
{4}2,2,2,,
{4}3,3,3,,
{4}4,4,4,,
{1}45,
{4}7,7,7,,
{4}6,6,6,,
{4}5,5,5,,
{1}54,
{4}3,3,3,,
{4}2,2,2,,
{4}1,1,1,,
{1}18,
{4}6,6,6,,
{4}7,7,7,,
{1}1h[1:1]/8h[1:1],
{1},
{2}2,2,
{2}3,3,
{2}1,1,
{1}78,
{2}7,7,
{2}6,6,
{2}8,8,
{1}21,
{4}1,1,1,,
{4}6,6,6,,
{4}2,2,3,3,
{4}4,4,5,,
{4}8,8,8,,
{4}3,3,3,,
{4}7,7,6,6,
{4}5,5,4,,
{4}4,4,4,,
{4}7,7,7,,
{4}3,3,2,2,
{4}1,1,8,,
{4}5,5,5,,
{4}2,2,2,,
{1}1h[1:1]/7h[1:1],
{1},
{2}3,24,
{2}3,24,
{2}4,35,
{1}24,
{2}6,75,
{2}6,75,
{2}5,64,
{1}75,
{2}2,31,
{2}2,31,
{2}1,28,
{1}31,
{2}7,68,
{2}7,68,
{2}8,71,
{1}68,
{4}1,1,2,,
{4}6,6,5,,
{4}2,2,3,3,
{4}5,5,46,,
{4}8,8,7,,
{4}3,3,4,,
{4}7,7,6,6,
{4}4,4,53,,
{4}4,4,3,,
{4}7,7,8,,
{4}3,3,2,2,
{4}8,8,17,,
{1}2q5[2:7]*q5[2:7],
{1},
{1},
{1},
{1}8b,
&inote_4=(163){1},
,
{384}1-4[2:3],8-5[2:3],,,
,,,,
,,,,
,,,,{24},,{8},{4},,,
{1},
(326){4},,,,
(163)
{8}2-5[8:1],,1,,7<4[8:1],,8,1,
{4}2h[4:1],3h[4:1],4h[4:1],5qq1[4:3],
{8}6h[2:1],,,,,,,,
{8}1pp3[6:1],,8,7,6p2[8:1],,,,
{8}7-4[8:1],,8,,2>5[8:1],,1,8,
{8}7h[4:1],,6h[4:1],,5h[4:1],,4-8[8:1],3,
{16}2h[8:3],,,,,,6h[4:1],,,,3,5,4h[4:1],,,,
{8}8-4[8:1],,2,3qq1[8:1],,5,5,,
{8}3-8[8:1],,4,,6<1[8:1],,5,4,
{4}3h[4:1],4h[4:1],5h[4:1],6v1[8:1],
{16}2h[4:1],,,,8,,,,1,,,7,,,5,,
{4}3h[8:1]/4h[8:1],2h[8:1]/5h[8:1],16,,
{8}6-1[8:1],,5,,3>8[8:1],,4,5,
{8}6h[4:1],,7h[4:1],,8h[4:1],,1-5[8:1],2,
{8}3h[4:1],,6,6,4,4,7,7,
{4}3-7[8:1],5-1[8:1],8w4[8:1],,
{8}8h[4:1],,5,,6h[4:1],,4,3,
{8}2h[4:1],,7,5,6,4,5,3,
{2}4-7[8:1],3-8[8:1],
{8}6h[2:1],,3,4,5h[4:1],,6,,
{8}4h[4:1],,8,,7h[4:1],,1,2,
{8}3h[4:1],,6,8,7,1,8,2,
{8}1-5[8:1],,2,2-4[12:1],,6,
{16}6h[2:1],,,,2,,1,,8h[4:1],,,,7h[4:1],,,,8,7,8,,
{8}1h[4:1],,4,,3h[4:1],,5,6,
{8}7h[4:1],,2,4,3,5,4,6,
{16}5-2[8:1],,,,,,,,6-1[8:1],,,5,,,4,,
{4}3h[4:1],2h[4:1],1p4[8:1],,
{8}5h[4:1],,1,,2h[4:1],,8,7,
{8}6h[4:1],,3,1,2,8,1h[4:1],,
{8}8,7,6h[8:3],5,4,3h[8:3],2,1,
{8}8-4[8:1],8,2-6[8:1],2,1>8[4:1],,,,
{16}1-5[8:1],,,,,,,,1-5[8:1],,,2,,,3,,
{8}34,,45,,5/6h[8:3],,4,3,
{8}12,,47,,78,,25,1,
{16}8,6,8>6[4:1],,,,,,,,,,3,,4,,
{8}2,5,3-8[8:1],,4-7[8:1],,3,2,
{4}3h[4:1],2h[4:1],1h[4:1],8,
{4}7h[4:1],5h[4:1],3h[4:1],1h[4:1],
{8}7,7,7,7,7-4[8:1]/8-3[8:1],,,,
{8}18,18,,34,,2-6[8:1]/5,,4,
{8},5,5h[4:1],,4,,4,3,
{8}12,1<6[8:1]/2,,2-6[8:1],,5<1[4:1],,,
{8},2,3,4,6,6,5,5,
{8}34,34,,26,,47,,78,
{8},2,1,2,1-5[8:1],,4,3,
{8}2,2,,{384}1-4[8:1],8-5[8:1],,,
,,,,
,,,,
,,,,{24},,{8},,,26,
{8}7,7,,{384}1-4[8:1],8-5[8:1],,,
,,,,
,,,,
,,,,{24},,{8},,,37,
{8}81,81,,65,,7-3[8:1]/4,,5,
{8},4,4h[4:1],,5,,5,6,
{8}87,8>3[8:1]/7,,7-3[8:1],,4>8[4:1],,,
{8},7,6,5,3,3,4,4,
{8}65,65,,73,,52,,21,
{8},7,8,7,8-4[8:1],,7,6,
{8}5,5-1[8:1],,4-2[12:1],,,,5,
{8}4,4-8[8:1],,5-7[12:1],,,,,
{8}3,3,,2h[4:1],,3h[4:1],,1h[4:1],
{8},4,4h[2:1],,,,3,2,
{8}1,1,,28,,37,,4qq1[2:1]/6pp1[2:1],
{1},
{8}56,56,,2h[4:1],,4h[4:1],,3h[4:1],
{8},6,5,6,4,,4,3,
{8}12,12,,8w4[8:1],,,,6,
{8}87,87,,1w5[8:1],,,,,
{8}6,6,,7h[4:1],,6h[4:1],,8h[4:1],
{8},5,5h[4:1],,3,4,6,7,
{8}8,8,,71,,62,,5pp8[2:1]/3qq8[2:1],
{1},
{16}2h[16:3],,,3h[16:3],,,4,,,,56,,7,,56,,
{8},3,4,3,5,,5,6,
{8}56,56,,4w8[8:1],,,,2,
{8}43,43,,5w1[8:1],,,,,
{8}18,27,,34,,2-6[8:1]/5,,4,
{8},5,5,4,4,3,3,,
{8}12,8-4[8:1]/3,,2q6[8:1],,5-1[8:1],,2,
{8}2,8,1,7,8,6,5,,
{8}34,34,,26,,47,,78,
{8},2,1,2,1-5[8:1],,4,3,
{8}2,2,,{384}1-4[8:1],8-5[8:1],,,
,,,,
,,,,
,,,,{24},,{8},,,26,
{8}7,7,,{384}1-4[8:1],8-5[8:1],,,
,,,,
,,,,
,,,,{24},,{8},,,37,
{8}81,72,,65,,7-3[8:1]/4,,5,
{8},4,4,5,4,6,4,7,
{8}87,1-5[8:1]/6,,7p3[8:1],,4>6[2:1],,7,
{8},,,,,,4,3,
{8}1v7[8:3]/2V46[8:3],,,,,,,8v2[2:1]/7V53[2:1],
{8},,,,,,,{384}1-4[8:5],8-5[8:5],,,
,,,,
,,,,
,,,,{24},,
{8},,,,,,,36,
{4}27,,2q5[4:1]*q5[4:1],,
{1}8b,
&inote_5=(163){1},
,
{384}1-4[2:3],8-5[2:3],1!s5[2:3],8!z4[2:3],
,,,,
,,,,
,,,,
{24},,{8},{4},,,
{1},
(326){8}18,,,27,,,4,5,
(163)
{8}3<6[8:1]/6-2[8:1],,,,58,,8-4[4:1],5,
{4}4<7[4:1],7-3[4:1],3q1[4:1],2>1[4:3],
{1}2h[1:1],
{16}1,,1,3,8h[4:1],,,,6>3[8:1],,,,6,,,,
{8}7>2[8:1]/2-6[8:1],,,,14,,4-8[4:1],1,
{8}8>3[4:1],,3-7[4:1],,7q4[4:1],,5,6,
{16}7h[8:3],,,,5,,4h[4:1],,,,6,5,3qq4[2:1]/4,,,,
{8},,5,5h[4:1],,3,2,,
{8}6>3[8:1]/3-7[8:1],,,,41,,1-5[4:1],4,
{4}5>2[4:1],2-6[4:1],6p8[4:1],7<3[4:1],
{16}7h[4:1],,,,,,,,26,,,15,,,84,,
{4}4/8>3[8:1],4<7[8:1]/8,4-1[8:1],,
{8}2<7[8:1]/7-3[8:1],,,,85,,5-1[4:1],8,
{8}1<6[4:1],,6-2[4:1],,2p5[4:1],,4,3,
{8}2h[8:3],,3,3,4,4,5,5,
{16}46,,46,,35,,35,,47,,47,,3,6,2,5,
{1}1bpp5[4:3],
{8}7h[4:1],,6,8,5,7,4,3,
{4}5q2[8:1]/2,4,3h[2:1],4,
{16}5,,,,3,4,5,6,8v5[8:1],,,,,,,,
{1}8qq4[4:3],
{8}2h[4:1],,4,3,1,2,4,5,
{8}6>3[8:1],,7,7-3[8:1],,8,8>5[4:1],,
{16}5,,,,6,,6,7,8h[2:1],,4,,3,,2,,
{1}1pp5[4:3],
{8}7h[4:1],,6,8,5,7,4,3,
{16}5q2[8:1]/2,,,,3h[4:1],,,,4,,,5,4,,6,,
{16}6>3[4:1],,,,6V41[4:1],,,,,,,,,,,,
{1}8qq4[4:3],
{8}2h[4:1],,4,3,2,1,8>3[8:1],,
{16}5-2[8:1],,6,,7,,8-5[8:1],,1,,2,,3,,4,5,
{16}4,,56,,47,,38,,2,3,4,5,6,7,8,1,
{8}2/6b,,2-4[12:1],5,2,,8-6[12:1],5,
{8}8,,2-4[12:1],5,2-6[8:1],,2,,
{8}3b,,7-5[12:1],4,7,,1pp2[4:1],4,
{8}1,,7-5[12:1],4,7-3[8:1],,7,,
{8}2/6b,,2-4[12:1],5,2,,8-6[12:1],5,
{8}8-4[8:1],,8-2[12:1],,8,,3,,
{4}4b-8[8:1],5-7[12:1],3-1[12:1],4h[4:1],
{8}1,1,1,1,{32}1,2,3,4,5,6,7,8,1b,,,,2,,,,
{8}12,1-5[8:1]/2-4[8:1],,1<6[8:1]/2,,1-5[8:1],,1<4[4:1]/7,
{8},3,3h[4:1],,,,4,35,
{16}26,,26,,,,2>5[8:1]/6<1[8:1],15,,,2-7[8:1]/6,,,,2<3[8:5],,
{8},2,6-3[4:1],5,,,,,
{8}18,1-5[8:1]/8-6[8:1],,1>4[8:1]/8,,1/8V25[24:5],,86,
{8},7,6,7,5,,5,6,
{8}87,87,,{384}8-5[8:1],1-4[8:1],,,
,,,,
,,,,
,,,,{24},,{8},81,,83,
{8}12,12,,{384}8-5[8:1],1-4[8:1],8!z4[8:1],1!s5[8:1],
,,,,
,,,,
,,,,{24},,{8},81,,16,
{8}87,8-4[8:1]/7-5[8:1],,8>3[8:1]/7,,8-4[8:1],,8>5[4:1]/2,
{8},6,6h[4:1],,,,5,64,
{16}73,,73,,,,7<4[8:1]/3>8[8:1],84,,,7-2[8:1]/3,,,,7>6[8:5],,
{8},7,3-6[4:1],4,,,,,
{8}81,8-4[8:1]/1-3[8:1],,8<5[8:1]/1,,8/1V74[24:5],,13,
{8},2,3,2,4,,6,5,
{8}34,34,,2h[4:1],,1,,45,
{16}65,,65,,,,78,,8,7,8,7,8,7,8,7,
{8}1,1-5[8:1],2,3,,4-8[8:1],3,2,
{16},,2,,2,,3,4h[16:3],,,3,,2,,1,,
{8}8,8>3[8:1],7,6,,5>2[8:1],6,7,
{8},1,8p5[8:3],7,6h[4:1],,,,
{8}8,8-6[8:1],,5-1[8:1],,8<4[4:1],,83,
{8},2,3,2,4,,4,3,
{8}27,5h[4:1],,4-6[12:1]*-2[12:1],,4,,18,
{16}72,3,4h[4:1],,,,5-2[8:1]*-8[8:1],,,,5,,,,1,,
{8}8,8-4[8:1],7,6,,5-1[8:1],6,7,
{16},,7,,7,,6,5h[16:3],,,6,,7,,8,,
{8}1,1<6[8:1],2,3,,4<7[8:1],3,2,
{8},8,1>7[2:1],2,3h[4:1],,,,
{16}1,,,2,,3,4-8[8:1],,,,1>5[4:1],,2,,16,,
{8},7,6,7,5,,5,6,
{8}72,4h[4:1],,5-3[12:1]*-7[12:1],,5,,81,
{16}27,6,5h[8:3],,,,4,,4,5,4,6,3,7,2,,
{8}18,1-5[8:1]/8-6[8:1],,1>4[8:1]/8,,1/8V25[24:5],,86,
{8}6,7,7,6,5,4,34,2,
{8}34,3-1[8:1]/4-8[8:1],,3/4<1[4:1],,46,,5h[8:1],
{8}2h[8:1],4h[8:1],3h[8:1],5h[8:1],4h[8:1],6h[8:1],5,,
{8}87,8-4[8:1]/7-5[8:1],,8>3[8:1]/7,,8-4[8:1],,8>5[4:1]/2,
{8},6,7,8,1,,15,48,
{8}37,3-8[8:1]/7-4[8:1],,3<7[8:1]/7,,1h[4:1]/3,,8,
{16}62,,6-1[8:1]/2-5[8:1],,,,6>2[8:1]/2,,,,8h[4:1]/6,,,,1,,
{8}81,8-4[8:1]/1-3[8:1],,8<5[8:1]/1,,8/1V74[24:5],,13,
{8},3,2,2h[4:1],,5,6,7,
{8}65,6-8[8:1]/5-1[8:1],,6/5>8[4:1],,53,,4V27[4:1],
{8},5,6h[4:1],,1,2,3,4,
{16}5-1[8:1]/6b<1[8:1],,,,,,,,,,,,1,2,3>8[8:1]/4b-8[8:1],,
{16},,,,,,,,,,54,36,27,,{384}1-4[8:7],8-5[8:7],1!s5[8:7],8!z4[8:7],
,,,,
,,,,
,,,,
{24},,
{1},
{16},,,,3,8,3,8,2q5[4:1]*q5[4:1],1,2,1,2,,,,
{1}8b,
