&title=七つ明杜若
&artist=木制みゅーと
&first=0
&des=xxhb
&lv_5=13
&inote_5=(168)
{1}
,
{16}
,,
{32},
{64},
(168)
{4}
2q5[4:3]/6,,,,
7h[1:1],,,,
5h[1:1],,,,
3h[2:1],,1h[2:1],,
7p4[4:3],,,,
2h[1:1],,,,
{1}
1s5[16:26],,
{16}
,,
(168)
{16}
2b<8[8:1]/7,,,,6,,,,
7v2[8:1],,4,,3,,3h[4:1],,,,
1<7[8:1],,2,,3v6[8:1],,,,
5>3[8:1],,,,1v4[8:1],,,,
7>2[8:1],,6,,5v8[8:1],,,,
2>5[8:1],,,,8<5[8:1],,1,,8,,,,
4v7[8:1],,,,6>4[8:1],,,,
1>4[8:1],,2,,1,,7,,6v1[8:1],,,,
8<5[8:1],,,,3>8[8:1],,,,7-3[8:1],,6,,5<8[8:1],,,,
2>5[8:1],,,,6-2[8:1],,,,1>4[8:1],,8,,7v2[8:1],,,,5>2[8:1],,,,
8-4[8:1],,1>8[2:1],,,,,,,,,,,,,,,,
{16}
7h[8:3],,3,4,5,,8>3[8:1],,,,4,,5,,6h[4:1],,,,
5v2[8:1],,7,,8<5[8:1]/5>2[8:1],,,,85,,,,
1,,2h[4:1],,6,5,4,,1<6[8:1],,,,5,,4,,3h[4:1],,,,
4,3,7h[8:3],,8-4[8:1],,,,8>3[8:1],,,,8,,
6h[4:1],,8,1,2,,4<7[8:1],,,,14,,2,,3q7[8:1],,,,38,,1,,2>5[8:1],,,,
72,,8,,1,,24,,1,,57,,8,,35,,1,,64,,8,,
3h[8:1]/5,,4,3,6h[8:1],,5,6,
2h[8:1],3,4,5,6,7,8,1,
3b,,6,5,6,,4,,6,,4,6,4,,6,,
2,,7,8,7,,1,,7,,1,7,1,,7,,
6,,3,4,3,,5,,3,,5,3,5,,3,,
7,,2,1,2,,1,,8,2,4,2,5,2,6,2,
7b,,2,1,2,,8,,2,,8,2,8,,2,,
6,,3,4,3,,5,,3,,5,3,5,,3,,
2,,7,8,7,,1,,7,,1,7,1,,7,,
3,,6,5,6,,4,,1,7,5,7,4,7,3,7,
2b,,7,8,7,,16,,6,5,6,4,7,,25,,
3,,2,1,2,,38,,7,8,7,1,6,5,6,,
2,,6,5,6,,47,,3,4,3,5,2,,74,,
6,,3,4,3,,25,,2,1,2,8,3,4,3,5,
8,,8,,6,,6,,4,,4,,2,,2,,
17,,6,,54,,3,,28,7,6,5,41,8,7,6,
2b,,1,,8,,7,,3-7[8:1],,2,,1,,8,,
4-8[8:1],,,3,3,,2,,1-5[8:1],,1>4[8:1],,,,,,
6<1[8:1],,,,1,,2,,
3,,4,,5,,6,,4-8[8:1],,5,,6,,7,,
5-1[8:1],,6,,7,,8,,
6b,,5,,4,,3,,7-3[8:1],,6,,5,,4,,
8-4[8:1],,,7,7,,6,,5-1[8:1],,2>5[8:1],,,,,,
8-4[8:1],,,,3,,2,,1,,8,,7,,6,,2-6[8:1],,1,,8,,7,,
3h[8:3],2,1,8,7,6,5,4,
2b,,7-4[8:1],,8,,1,,
3,,8-5[8:1],,1,,2,,
4,,7-4[8:1],,8,,1,,
3,,8-5[8:1],,1,,2,,
3,,2-5[8:1],,1,,8,,
6,,3-8[8:1],,4,,5,,
7,,1-5[8:1],,8,,7,,
4,,3-7[8:1],,4,,5,,
8b,,2,1,2h[8:1],,7,8,7h[8:1],,2,1,3h[8:1],,7,8,
6b,,5,6,2h[8:1],,4,3,7h[8:1],,5,6,
1h[8:1],,4,3,
8b,2,1,3,4,2,5,3,6b,2,7,3,8,4,1,5,
2b/6,1,8,7,56,4,3,2,1/8b,7,6,5,43,2,1,8,
{1}
3bpp6[4:11]/7pp2[4:11],,,,
{4}
2/4pp7[4:3],,3,,1pp4[4:3],,8,,
6pp1[4:3],,5,,4h[4:1],8<2[8:3],,,
1pp4[4:3],,8,,6pp1[4:3],,5,,
3pp6[4:3],,7,,8pp3[4:2]*qq5[4:2],,,,
(168)
{16}
2,,4,3,,5,4,,6-1[8:1],,,,3,,,,
4-1[8:1],,,7,7,,6,,5-1[8:1]/2,,3,,4,,,,
7,,5,6,,4,5,,3-8[8:1],,,,6,,,,
5-8[8:1],,,2,2,,3,,4-8[8:1]/7,,6,,5,,,,
1,2,3,4,5,6,7,8,
5,1,5,1,6,2,7,3,
8,7,6,5,4,3,2,1,
4,8,4,8,3,7,2,6,
1,2,3,4,5,6,7,8,{32}
61,5,4,3,2,1,8,7,
2b/6,,,,{16}62,37,8b>3[8:1]*<5[8:1]/4,,,,8bw4[8:1],,,,8b,,,,
15,,26,,
3h[16:2]/7b,,8,1h[8:1],,7,5h[8:1],,6,5,6,7,81,2,3,4,
5/6h[16:2],,3,5h[8:1],,2,4h[8:1],,1,2,3,4,58,1,2,3,
1/4b-7[16:1],,,8b-3[16:1],,,6b-1[16:1],,,2b-5[16:1],,,8h[4:1],,,,
1b-4[16:1],,,6b-1[16:1],,,8b-3[16:1],,,5b-8[16:1],,,4b,,,,
6h[16:2]/2,,1,8h[8:1],,2,4h[8:1],,3,4,3,2,18,7,6,5,
4/3h[16:2],,6,4h[8:1],,7,5h[8:1],,1,8,7,6,54,3,2,1,
8h[4:1]/6b,,7,,6,,7h[4:1]/5b,,6,,5,,
6/4b,5,4/1b-4[8:1]*-6[8:1],,,,1,,,,5,,3b/5,,28,,4b/6,,17,,
3b/5h[8:1],,3,4h[8:1],,2,8h[8:1],,6,8b,4,7,5b,7,3b,5,
1h[8:1],,7,5h[8:1],,8,2h[8:1],,4,2b,6,3,5b,3,1b,3,
7h[8:1],,4,5h[8:1],,2,8h[8:1],,2,8b,2,6,8b,6,1b,5,
3h[8:1],,5,2h[8:1],,8,5h[8:1],,1,3b,1,3,5b,3,8b,4,
6b,,3,4,,4,5,,6,5,6,4,5,4,7,,
61,,6,5,,5,4,,3,4,3,5,4,5,2,,
1,8,2,7,3,6,4,5,
{32}
4,3,2,1,8,7,6,5,
4,3,2,1,8,7,6,5,
{12}
4b,8,8,3b,7,7,{16}2b,,1,1,1,,5,,
{4}
4qq7[4:11],,,,6,,,,8,,,,2,,4,,
5pp2[4:7],,,,3,,,,4h[32:79],,,,,,,{32},,,,,,,5h[32:16],,,,,,,,,,,,,,,,,{24}36,27,1b/8b,,
{1}
,
E
