&title=Liar Dancer
&artist=マサラダ
&first=0
&des=千夏
&lv_5=13+
&inote_5=(170)
{1}
,,,
{32}
,,,,,,,,,,,,,,,,,,,,,,
{16}
5h[4:1],,,,2,,,,1,,,24,,,35,,
4h[4:1],,,,7,,,,8,,,75,,,64,,
5h[4:1],,,,2,,,,1,,,24,,,35,,
64,,7,,35,,2,,56,,7,,34,2,1,,
4h[4:1]/6b,,,,8,,,,57,,,46,,,35`,,
4h[4:1]/2,,,,1,,,,24,,,35,,,46,,
5h[4:1]/7,,,,8,,,,57,,,46,,,35,,
2h[2:1],,,,,,,,1,1,1,1,1h[4:1],,,,
2b,,6,5,7,,3,4,2-5[8:1],,,8,2,,7,,
6-8[8:1],,,5,6>1[4:1],,3,,6,,,,4,,4,,
8,,3,4,2,,6,5,7-4[8:1],,,1,7,,2,,
3h[4:1],,1,,4h[4:1],,1,,3h[4:1],,1,,4h[8:1],,1,,
5b,,2,4,3,,7,5,6-1[8:1],,,4,6,,3,,
2-4[8:1],,,1,2<5[4:1],,7,,2,,,,8,,8,,
4,,6,5,7,,3,4,2V84[4:1],,,5,,,6,,
7<8[16:9],,,,,,,,,,,,,,,,
83,,,,83,,,,4,5,36,,72,,,,
6h[8:1],,5,,6h[8:1],,5,,7h[8:1],,5,,7h[8:1],,5,,
8V64[4:1],,5,,4,,3,,2,,1b,,1b,,,,
3h[8:1],,4,,3h[8:1],,4,,2h[8:1],,4,,2h[8:1],,4,,
1V35[4:1],,4,,5>7[3:1],,6,,7,,,,,,,,
6h[8:1],,5,,8h[8:1],,5,,7h[8:1],,5,,7h[8:1],,5,,
8V64[4:1],,5,,4,,3,,2,,1b,,1b,,,,
3h[8:1],,4,,3h[8:1],,4,,3h[16:3],,,4h[16:3],,,5h[16:2],,
6h[4:1],,,,7,,6,4,5,3,4,,2,,1,,
8h[8:1],,5,,7h[8:1],,5,,6,,3,4,2-4[8:1],,1,,
7-5[8:1]/2,,8,,4-8[8:1]/7,,3,,4/6h[4:1],,,,1,2,3,4,
7h[8:1],,5,,6h[8:1],,4,,3,,6,5,7-4[8:1],,8,,
2-8[8:1]/7,,3,,2/6-8[8:1],,5,,6,,1,2,3,4,5,6,
8-4[8:1],,5,,8,,3,,4-7[8:1],,,3,4,,2,,
1h[8:1],,8h[8:1],,7h[8:1],,6h[8:1],,5h[8:1],,7,6,54,3,2,1,
8/5-1[8:1],,1,,52,,,,1/4-8[8:1],,8,,74,,,,
3b/4,,2,,5/6b,,7,,3b/4,,2,,56,,7,,
8h[8:3]/5b,,,,,,,,75,,,64,,,35,,
2h[8:3]/4b,,,,,,,,35,,,46,,,57,,
8b/4,,,73,,,26,,1b/5,,,26,,,37,,
8h[4:3]/4b,,,,3b,,,,2b,,,,1b,,,,
8^5[8:1],,,,5,,,,1^4[8:1],,,4,,,5,,
5^8[8:1],,,,8,,,,1h[8:1],,2h[8:1],,3h[8:1],,4,,
2/5<1[4:1],,,,1>5[4:1],,,,5<1[8:2],,,,1,,,,
4,,3,,2,,1,,1,8,2,7,3,6,4,5,1b,
,,,,,,,,,,,1-3[8:1]/8-3[8:1],,72,,
18,,,,8-6[8:1]/1-6[8:1],,27,,81,,,,4,,2h[4:1]/5,,,,
1,,8/7-3[8:1],,56,,74,,2h[4:1],,,,4,,
56,,7,,34,,2,,6/1b-5[8:1],,,,1b/7b-3[8:1],,,,
7b/3<8[2:1],,,,,,8,,1,,2,,3,,4,,
4-8[8:1],,,,48,,7,,61,,5,,24,,3^8[8:1],,
,,5,,6,,7,,18,,27,,6-1[8:1],,5,,
6/3-8[8:1],,4,,36,,7,,8-6[8:1]*-2[8:1],,,,8-4[8:1]*-4[8:1],,,,
8b,,1^4[8:1],,,,1^6[8:1],,,,1,,1,,,,
6^1[8:1]/4,,,5,6,,4,,3,,2,,2^5[8:1]/8,,,1,
2,,8,,7,,6,,5,,3,4,2,,8,,
7-5[8:1],,7,,8-4[8:1],,8,,5-1[8:1],,5,,4-2[8:1],,4,,
4b/1-5[8:1],,,,1b/6-8[8:1],,,,6b/5w1[8:1],,,,5b,,,,
3^8[8:1]/5,,,4,3,,5,,6,,7,,7^4[8:1]/1,,,8,
7,,1,,2,,3,,4,,6,5,7,,1,,
24,,1,,75,,8,,81,,,27,,,3h[4:1]/6h[4:1],,
,,,,1,8,1,8,{32}1-5[8:1],2,3,4,5,6,7,8,1b,,,,,,,,
{16}
8,,6,5,7,,3,4,,2,1,2,1,,3,,
8,,3,4,2,,6,5,,7,8,6,2,1,3,8,
4h[4:1],,7,,5h[4:1],,2,,4h[4:1],,8,7,6,,3,,
6-4[8:1],,6,,3-7[8:1],,3,,8-2[8:1],,8,,4-8[8:1],,4b,,
8,,6,5,7,,3,4,,7,8,7,8,,6,,
1,,6,5,7,,3,4,,2,1,3,7,8,6,1,
5h[4:1],,2,,4h[4:1],,7,,5h[4:1],,1,2,3,,6,,
3h[4:1],,{32}4,5,6,7,8h[4:1],,,,,,,,1h[4:1],,,,8,7,6,5,4b,,,,,,,,
{16}
2b/5,,7,8,7,,2,1,,3,4,2,5,,1,,
78,,6,5,6,,3,4,,2,1,3,7,8,6,1,
25,,3,,57,,6,,13,,2,2,68,,7,,
6h[2:1]/1,,,,,,,,8,,16,,25,,34,,
7b/4,,2,1,2,,7,8,,6,5,7,4,,8,,
21,,3,4,3,,6,5,,7,8,6,2,1,3,8,
47,,6,,25,,3,,84,,7,,6/1<2[4:2],,2,,
3h[4:2]/1,,,,,,,,,,,,2,,,,
18,,,,27,,,,3h[2:1]/6b,,,,,,,,
7,,,16,,,34,,5b/7h[2:1],,,,,,,,
5,,,16,,,78,,1b/5,,,34,,,57,,
1/2b,,,34,,,56,,7b/2h[4:3],,,,6b,,,,
5b,,,,4b,,,,1^4[8:1],,,,4,,,,
8^5[8:1],,,5,,,4,,4^1[8:1],,,,1,,,,
8h[8:1],,7h[8:1],,6h[8:1],,5,,4>8[4:1]/7,,,,8<5[4:1],,,,
5v4[4:1],,,,4>1[6:1],,,,5,,6,,7,,8,,8,1,7,2,6,3,5,4,8b,,,,,,,,,,,,
1-5[8:1]/8-6[8:1],,72,,1b/8b,,,,1-3[8:1]/8-4[8:1],,27,,
18,,,,5,,6h[4:1]/3,,,,
1,,8/2-5[8:1],,6-1[8:1]/3,,2,,6,,,,3,,
46,,8,,35,,1,,3/8b-6[8:1]*-5[8:1],,,,8b-3[8:1]*-2[8:1],,,,
8b-4[8:1],,,,8,,1,,2,,3,,4,,5,,
6-1[8:1],,,,64,,3,,28,,7,,75,,3^8[8:1],,
,,8,,7,,6,,45,,36,,8-6[8:1],,4,,
8-2[8:1],,4,,8,,4,,1^4[8:1]*^6[8:1],,,,1-5[8:1]*-5[8:1],,,,1b,,8^5[8:1],,,,8^3[8:1],,,,8,,8,,,,
7^4[8:1]/1,,8,1,7,,1,,2,,3,,3^8[8:1]/5,,4,5,
3,,5,,6,,7,,8,,2,1,3,,5,,
6-8[8:1],,7,,6/5-1[8:1],,4,,8-4[8:1],,7,,8/1-3[8:1],,2,,
1b/4-8[8:1],,,,4b/7-5[8:1],,,,7b/8w4[8:1],,,,8b,,,,
2^5[8:1]/8,,1,1,2,,8,,7,,6,,6^1[8:1]/4,,4,4,
6,,4,,3,,2,,1,,7,8,6,,4,,
31,,4,,68,,5,,54,,,36,,,2h[4:1]/7h[4:1],,
,,,,1,8,1,8,{32}1s5[8:1]*s5[8:1],2,3,4,5,6,7,8,1b,,,,,,,,
{16}
7b,,2,4,3,,7,5,6^1[8:1],,,1,6,,2,,
3-1[8:1],,4,5,3<8[4:1],,6,,3,,,,5,,5,,
1,,7,5,6,,2,4,3-8[8:1],,,8,3,,7,,
6h[4:1],,8,,5h[4:1],,8,,6h[4:1],,8,,5h[8:1],,8,,
4b,,7,5,6,,2,4,3-8[8:1],,,5,3,,6,,
7-5[8:1],,8,1,7>4[4:1],,2,,7,,,,1,,1,,
5,,2,4,3,,7,5,6V48[4:1],,,4,,,3,,
2>1[16:7],,,,,,,,,,,,,,2,3,4
,,8,6,7,,1,3,2-5[8:1],,,8,2,,7,,
6-8[8:1],,5,4,6>1[4:1],,3,,6,,,,4,,4,,
8,,1,3,2,,8,6,7-4[8:1],,,1,7,,2,,
3h[4:1],,1,,4h[4:1],,1,,3h[4:1],,1,,4h[8:1],,1,,
5b,,2,4,3,,7,5,6-1[8:1],,,4,6,,3,,
2-4[8:1],,1,8,2<5[4:1],,7,,2,,,,8,,8,,
4,,7,5,6,,2,4,3V51[4:1],,,5,,,6,,
7<8[16:9],,,,,,,,,,,,,,,,
27,,,,27,,,,5,4,36,,2b/7b
,
