&title=Break Through The Barrier
&artist=lixound
&first=-0
&des_1=泠殇_Eric as BarrierBreaker
&des_2=泠殇_Eric as BarrierBreaker
&des_3=泠殇_Eric as BarrierBreaker
&des_4=泠殇_Eric as BarrierBreaker
&des_5=泠殇_Eric as BarrierBreaker
&lv_5=14
&des_6=泠殇_Eric as BarrierBreaker
&des_7=泠殇_Eric as BarrierBreaker
&des=泠殇_Eric as BarrierBreaker
&inote_5=(176)
{8},,,,5w1[8:1]b,,,,
{32}1bx,2x/8x,37,46,5hx[2:1],,
{16},,,,,,,4,6,3,7,2h[16:1]/8xh[8:1],,,,4h[16:1]/3xh[8:1],,,,1-5-3-8[4:1]/6xh[4:1],,,,,,,,,,
{32}8bx,1x/7x,26,35,4hx[2:1],,
{16},,,,,,,5,3,6,2,7h[16:1]/1xh[8:1],,,,5h[16:1]/6xh[8:1],,,,8-4-6-1[4:1]/3xh[4:1],,,,,,,,,,
{32}1bx,2x/8x,37,46,5h[2:1],,
{16},,,,,,,4,6,3,7,1>4[8:1]*<6[8:1],,,,1w5[8:1],,,,1,,,,1,,
{32}8x/2x,73,64,5x,,,,,
{16}4hx[8:1]/6hx[8:1],,,5hx[8:1]/7hx[8:1],,,4hx[8:1]/6hx[8:1],,,3hx[8:1]/5hx[8:1],,,3hx[8:1]/5hx[8:1],,,,8h[8:1]/2h[8:1],,,1h[8:1]/3h[8:1],,,8h[8:1]/2h[8:1],,,7h[8:1]/1h[8:1],,,7h[8:1]/1h[8:1],,,,
{1}6h[1:4]/8b-2>4-6z2[2:3],,
{16}B5,,,B4,,,B3,,,B2,,,B1,,,,E5,,,E4,,,E3,,,E2,,,E1,,,,
{8}1,2,38,7,26,3,47,6,25,25,16,16,47,47,38,38,
{16}2,1,2,1,3,8,3,8,4,7,4,7,5<3[2:1],6,5,6,5,,,,,,,,5-1[8:1]b,,,,Cf/B5/B1,,,,2hb[8:1]/8hb[8:1],,,,1,,6,5,6,,3,4,3,,6,5,7,,3,4,2,,7,5,7,,2,4,2,,7,5,8,,2,4,1,,8,5,8,,1,4,1,,6,5,7,8,5,4,8,1,4,3,8<5[8:1],,,,8>3[8:1]/2,,,,6bx/8b,,,,7,,2,4,2,,5,3,5,,4,6,8x,7,1,8,2x,5,3,4,1x,8,2,1,4x,7,5,6,4qq1[8:5],,,,E6,,,,,,E7,,,,E8,,8xqq5[8:5],,,,E2,,,,E5,E4,E3,E2,E1,,,,
7xhb[8:1]/1xhb[8:1],,,,8,,3,4,3,,2,1,2,,6,5,6,,7,8,7,,2,4,3,,7,5,6,,2,1,B2/B3,,8,1,B6/B7,,1,8,B3/B2,,7,8,B7/B6,,3,4,3,5,4,6,5-1[4:1],7,4,6,5hx[4:1],,,,,,,,2hb[8:1]/8h[8:1]b,,,,3,4,3,4,1hb[8:1]/7hb[8:1],,,,6,5,6,5,4hb[8:1]/8hb[8:1],,,,2hb[8:1]/6hb[8:1],,,,1b/7hb[8:1],,
{32}2,3,4,5,6,,,,6,5,4,3,
{8}2bpp6[2:3],,,,1h[8:1],,8,8h[8:1],,7,7h[8:1],,8,8,8<5pp1[4:7],,5h[8:1],,4h[8:1],,3h[8:1],,3,3h[8:1],,2,2h[8:1],,3,3,3qq8>4[4:7],,3/4bh[4:1],,,,5h[8:1],,6,6h[8:1],,7,7h[8:1],,8,8,8z4z8[8:5],,84,,,,3,3,3,3,
{24}2h[8:1]/4,,,8,7,6,
{8}5,14,
{12}2,4,3,8,6,7,
{1}1bw5[2:3]b,,
{16}B1,B2,B3,B4,B5,B6,B7,B8,B1,B2,B3,B4,B5,B6,B7,B8,E1,E8,E7,E6,E5,E4,E3,E2,E1,E8,E7,E6,E5,E4,E3,E2,A1,A2,A3,A4,A5,A6,A7,A8,A1,A2,A3,A4,A5,A6,A7,A8,E1,E8,E7,E6,E5,E4,E3,E2,B1,B2,B3,B4,B5,B6,B7,B8,
1hx[16:7],2x,3x,4x,5x,6x,7x,8x,1hx[16:7],2x,3x,4x,5x,6x,7x,8x,1hx[16:7],2,3,4,5,6,7,8,1hx[16:7],2,3,4,5,6,7,8,
{8}1x/5x,2x>5[8:1],1x,
{32}5x,6x,7x,8x,
{8}1x,8x<5[8:1],1x,
{32}5x,4x,3x,2x,
{8}1x,8x>3[8:1],7x,
{32}4x,5x,6x,7x,
{16}8bx,4bx/8bx,,3bx/7bx,,2bx/6bx,2bx/6bx,,
{8}8x/4x,7x<4[8:1],8x,
{32}4x,3x,2x,1x,
{8}8x,1x>4[8:1],8x,
{32}4x,5x,6x,7x,
{8}8x,1x<6[8:1],2x,
{32}5x,4x,3x,2x,
{16}1bx,5bx/1bx,,6bx/2bx,,7bx/3bx,7bx/3bx,,
1h,8,2h,7,3h,8,4h,7,
{32}5xh[16:1],6xh[16:1],,,
{16}4h,7,1h,8,2h,5,
{32}3xh[16:1],4xh[16:1],,,2h,,8,,5xh[16:1],6xh[16:1],,,1h,,7,,2xh[16:1],8xh[16:1],,,3h,,5,,1xh[16:1],7xh[16:1],,,4h,,6,,
3b,2x,1x,8x,7xh,,5,,6h,,4,,5h,,3,,6bh,,4,,5h,,3,,6h,,2,,7h,,1,,
{16}8bh,2,7h,1,6h,8,5h,1,4bh,3,7h,8,6h,5,1h,2,
{4}5b-1[16:3],
{16},,,,2,3,8,7,3,4,7,6>5>4>3>2<1<8<7<6[8:5],
{1},
{8}1h[8:1]/2>6>2[8:5],,8h[8:1],,7h[8:1],,8h[8:1],,7<4q8[8:5]/1h[8:1],,2h[8:1],,3h[8:1],,2,2,1h[8:1]/3>8q5[2:1],,8h[8:1],,7h[8:1],,6,6,8/7h[8:1],1,6h[8:1],2,5h[8:1],3,3/4b,3b/4,4b-8-6-4[2:1]/3h[8:1],,2h[8:1],,1h[8:1],,2h[8:1],,3-7-1-4[2:1]/4h[8:1],,5h[8:1],,6h[8:1],,7,7,8-4-6-2[2:1]/4h[8:1],,3h[8:1],,2h[8:1],,1,1,
{32}1hb[8:1],,,,8,7,6,5,4h[8:1],,,,1,2,3,4,5h[8:1],,,,
{16}7h[8:1],,5,6,4,5,
{8}3b-8-4[2:1],,8h[8:1],,7h[8:1],,6,6,7/5-2[8:1],5,8-4[8:1],8,1<6[8:1],1,5-1[8:1],5,5b-3-1-7-5[2:1]/4,,8h[8:1],,4h[8:1],,8,8-4-7[2:1],4h[8:1],,3h[8:1],,2h[8:1],,1,1,
7b/8b-4[8:1],1b/6b,7bh[2:1]/8b,
{32},,5,,,,,5,4,3,2,1,
{8}8b,,2b/1b-5[8:1],8b/3b,
{16}2b/1b,2b,,3,,46,46,,3pp6[8:7],,7bpp2[8:6]b,,,,,,,,,,,,,,,,,,
{24}3,2,1,8,7,6,3,2,1,8,7,6,3,2,1,8,7,6,
{16}1b/5b,,,,1b/2b>5[8:1],,,1,2,,8,,7h[4:1],,6,5,4,36,25,14,8b-4[8:1]/3,,,7,8,,6-2[8:1],,5-3[8:1],,6,,5,,1,,
{16}8b/7b<4[8:1],,,8,7,,1,,2h[4:1],,3,4,5,63,74,85,1b-5[8:1]/6,,,2,1,,3-7[8:1],,4-6[8:1],,3,,4,,8,,
{16}1bV35[8:1]/7b,,,8,1,,7,,8h[4:1],,6,5,4,37,26,15,8b-2[8:1]/4,,,7,8-3[8:1],,6,,8-4[8:1],,5,,8,,6,,
57,,7,,64,,6,,25,,2,,6/3h[4:1],,,,5,4,5,4,5,4,5,4,5-1[8:1]b,4,5,4,5,,,,
{8}8/2>5[8:1],,
{48}A2f/5,6,7,8,,,
{16},,1-5[8:1],,2,,1,,3,4,3>6[4:1],,2,,6<3[4:1]b,,5,,3,,4,,5,,,,
{8}4/6<1[8:1],,
{48}A6f/1,2,3,4,,,
{16},,5-1[8:1],,6,,5,,7,8,7<2[4:1],,6,,2>7[4:1]b,,1,,Ch[4:1],,,,,,,,
{8}2bh[4:1]/8bh[4:1],,,4bh[4:1]/6bh[4:1],,,1bh[4:1]/7bh[4:1],,,3bh[4:1]/5bh[4:1],,,
{32}47,,,,16,2,3,4,57,,,,83,7,6,5,
{8}2b-7[8:1]*v5[8:1]/4,,,,6h[8:1],8,6,8/6h[8:1],8,6,5/6h[8:1],5,65,6,6h[4:1]/5,,
{24}2,3,4,1,2,3,7,6,5,8,7,6,
{8}3h[8:1],4,3,4/3h[8:1],4,3,1/3h[8:1],1,3b/1,4/6b,1b/7,2/4b,
3bV51[4:1]/5-7[8:1],,,,8h[8:1],2,8,2/8h[8:1],2,8,6/8h[8:1],6,8-4-8[4:1]/6,7,18,,
1bw5[8:1],,,,2-5[8:1],6-1[8:1],2,6,
{16}4,8,3,7,2,6,1,5,8,1,2,3,8,7,6,5,
E
