&title=【新人初谱】だから僕は音楽を辞めた
&artist=ヨルシカ
&first=0
&des=哈哈我今天开始写谱了
&lv_5=12
&inote_5=(125){16},,{8},,,,,,,,,,,,,,,,6,
6,6,{16}5-3[8:1],6,5,6,{8}5,6,
,3,3,3,{16}4-6[8:1],3,4,3,{8}4,3,
{16},,1,2,3,4,5,6,{8}7,8h[4:1],{16},,4,4,
4,3,2,1,8,7,6,5,{8}4,5h[4:1],,4,
{16},,2,1,2,1,{8}2,{16}1-7[8:1],2,1,2,{8}1,2,
{16},,7,8,7,8,{8}7,{16}8-2[8:1],7,8,7,8,7,{8}6,
{16},,,,4,5,6,7,8,1,{8}2,,,{1}4/5,
{8}5/6,4,3h[16:3],{16}4,4h[16:3],,,{8}3,{4}2/5,
{8}3/4,5,6h[16:3],{16}5,5h[16:3],,,{8}6,{16}4/7,6,{8}5,
5/6,4,3h[16:3],{16}4,4h[16:3],,,{8}3,4,5,
6h[16:3],{16}5,5h[16:3],,,{8}6,4/7,6,2/5,3,
4/6,5,7h[16:3],{16}6,5h[16:3],,,{8}6,{4}4/7,
{8}3/5,4,2h[16:3],{16}3,4h[16:3],,,{8}3,{16}2/5,3,4,5,
{8}4/6,5,7h[16:3],{16}5,5h[16:3],,,{8}7,5,4,
{16}2h[16:3],,,4h[16:3],,,{8}3,{4}2/5-8[8:1],4,
{8},2,2,6,{16}6-4[8:1],4,3,2,{4}1h[8:1],
{8},7,7,3,{16}3-5[8:1],5,6,7,{4}8h[8:1],
{16},,2,8,{8}2,8-4[8:1],3,3,,,6h[16:1],
5h[16:1],4h[16:1],3<6[8:1],{16}8,8,{8}8h[4:1],,1,
,7,7,5,{16}5-3[8:1],6,7,8,{4}1h[8:1],
{8},2,2,4,{16}4-6[8:1],3,2,1,{4}8h[8:1],
,6h[4:1],5h[4:1],4q5[8:3],
{16}8,1,2,3,4,5,{8}6,,,4,4,
{4}6/3>6[2:1],{8},,,,5,3/6q3[8:5],
,,,,,,4,5/4v5[8:3],
,,,,,5,1/8,2/7,
{16}2h[16:3],,,3h[16:3],,,{8}4-1[8:1],,8,{4}8,
{16}6,7,8,1,2-8[8:1],3,4,5,{8}6-2[8:1],6,{16},,,,3,
2,1,8,7-1[8:1],6,5,4,3-7[8:1],,,3,,,{8}2,
{1}2h[4:3]/1>8[2:1],
{16}4x/5x,,,2b/7b,,,{8}B1/E1/Cf/B5/E5,,,3/4,4/5,
5/6,{16}6,7,,7,{8}8,3/4,{16}3,2,,2,{8}1,
{16}5,6,{8}7qq4[8:3],8,1,,,3,{16}3,4,
{8}2,{16}6,5,{8}7,{16}4,5,{8}4,{16}4/5,6/3,{8}2-5[8:1]/7-4[8:1],1/8,
{4}2b/7b,{8}E2/E8,{16}E3/E7,C,{8}E4/E6,E1/E5,Cf/E3/E7,2/7,
1/8,{16}1,2,,2,3,4,{8}6,{16}8,7,,7,{8}6,
3,2pp5[8:3],1,8,,,6,7-4[8:1]/8-3[8:1],
1x/6x,7x/8x,,,3x/8x,1x/2x,7/8,1/6,
{16}E2,E6,E3,E7,E4,E8,E5,C,,E2,E8,E3,E7,E4,E6,E5,
B8,E3,B5,B1,E7,B4,B8,E3,B5,B1,E7,B4,E1,E5,{8}C,
{16},E2/B2,,B8/E8,,B4/E4,,E6/B6,,B1/E2,,B7/E8,,B3/E4,,B5/E6,
,B1/E1,,E7/B7,,E3/B3,,E5/B5,,B1/B2,,B7/B8,,B4,{8}B5,
{16}E3,E8,B3,B7,B4,B6,{8}E5,{16}E7,E2,B6,B2,B5,B3,{8}E5,
{16}E3,E7,E2,E8,E4,E6,{8}C,{32},,,,E1,E8,E7,E6,E5,E4,E3,E2,{8}E1,
{16}B4,B5,,B2/E3,,B6/E7,,,{8}E4/E5/E6,{16}B1,B8,,B3/E3/B7/E7,,,B2/E2/B5/E6,
,,B3/E4/B7/E8,,,{8}E1/E5,{2}Cf/B2/B3/B6/B7,
{8},1,2,3,{16}4-8[16:3],5,6,7,{8}8,5,
{16},,8,7,8,7,8,7,6-2[16:3],5,4,3,{8}2,4,
,2,1,{16}8,7,{8}6-3[8:1],{16}5,4,{8}3,1,
{16},,6,5,{8}6,{16}5,6,{8}7-4[8:1],{16}4,3,{8}2,1,
{4}8h[2:1],1,{8}2h[2:1],4,{16},4,,,{4}6h[2:1],
5,{16}4h[4:1],,,5,,,4,5,
{8}4,4,{4}6h[4:1],5,3h[4:1],
4q5[2:1],{8},,,,7,6,
7/5h[1:2],{16}6,6,,6,{8}6,{4}6,6,
4,4,4,{8}3,{16}4,4,
{8}4h[1:2],{16}5,5,,5,{8}5,{4}5,5,
3,3,3,{8}5,{16}5,6,
{8}7,{16}3,3,,4,{8}4,{2}8-6[4:1],
2-8[4:1],4-2[4:1],
6-4[4:1],3-5[4:1],
{8}6,{16},,,,,,,,,,,,4,4,
5<8[16:3],,,8>3[16:3],,,{8}3<6[16:3],{16},6<1[16:3],,,{8}2,3,
{4}4h[4:1],{8}5,2/7,,4/5,{16}3,5,4,6,
{8}5x/7x-3[8:1],2x/4x,{16},,,1b,,,,,{8}3>6[2:1],6,
3,{16}3,3,,2,{8}2,2,{16}5,5,,3/7,,,{8}2-5[8:1]/6-1[8:1],
1/5,2b/6b,B7/B3/Cf,,,4/5,{16}3,4,
{8}2,{16}6,5,{8}7,{16}1,8,{8}1,{16}2/6,6/2,{8}3-8[8:1]/7-4[8:1],4/8,
{4}3b/7b,{8}2/6,{16}4,4,{8}5w1[8:1],{16}3/7,7,{8}5,Cf,
4/5,{16}2/1,3/8,,1/2,{8}3/8,5,{16}7/8,6/1,,8/7,{8}6/1,
4,2qq7[8:3],3,4,,,6,{16}7-4[8:1]/8-3[8:1],7/8,
{8}1x/6x,7x/8x,,,3x,1x-6[8:1]/2x-5[8:1],3/8,1b/2b,
{16},,E4,E8,E3,E7,E2,E6,E1/B1,E5/B5,E3/B3,B7/E7,{4}Cfh[4:1],
{1}8b,
E
