&title=Oshama Scramble! (Cranky Remix Long Version)
&artist=t+pazolite
&first=-0.136
&des=SkyLucky
&lv_5=14
&inote_5=(189.999)
||INTRO
{1},,,,
{2}E7,E8,E1,E2,E3,E4,E5,E6,
{2}A3h[2:6]/E7,A4,A4h[1:2],A5,
A5h[2:3]f,A6,A6h[2:1],4b,
{2}A6h[2:6],A5,A5h[1:2],A4,
A4h[2:3]f,A3,A3h[2:1],5b,
{2}2,8p4[8:1]/7^6-4[8:1],
{8}2,,2,2,8p4[8:1]/7^6-4[8:1],,,,
{2}2,8p4[8:1]/7^6-4[8:1],
{8},2,,2,7v4[8:1]/8q4[8:1],2,7/8,,
{2}7,{8}1q5[8:1]/2^3-5[8:1],,,
{8}7,,7,,7,1q5[8:1]/2^3-5[8:1],,,,
{2}7,{4}1-5[8:1]/2-4[8:1],1-7[8:1]/2-6[8:1],
{8}12,,,7,2v5[8:1]/1p5[8:1],7,2/1,,
{2}6,3v8[8:1]/4V28[8:1],
{8}6,,6,6,3v8[8:1]/4V28[8:1],,,,
{2}6,3v8[8:1]/4V28[8:1],
{8},6,,6,3v8[8:1]/4p8[8:1],6,3/4,,
{8}3,,,,6v1[8:1]/5V71[8:1],,,3,
{8},3,,3,6v1[8:1]/5V71[8:1],,,,
{4}3,,6v1[8:1]/5V71[8:1],56,
{2}3^1[8:1]/4p8[8:1],5q1[8:1]/6^8[8:1],
{16}4,3,5,6,3,2,4,5,
3-8[8:1]b/4-8[8:1]b,,,,3bx/4bx/Cf,,,,
||partA
{16}4/5,,2,4,3,,7,5,6,,2,4,3,,7,5,
{16}6,,2,4,3,,7,5,6b^1[8:1],,,,2,,,,
{16}4/5,,7,8,7,,4/5,,4/5,,2,1,2,,4/5,,
{8}3/6,45,2/7,36,7-4[8:1]/2-5[8:1],,2b/7b,,
{16}4/5,,7,5,6,,2,4,3,,7,5,6,,2,4,
{8}3,5/6,7/8,1/2,4b/3b^8[8:1],,7,7,
{8}6,5/7,4/8,3/1h[4:1],,8,2/6,3/5,
{8},4x/8x/E4/E8,,E3/2x/E7/6x,,1xh[4:1]/5xh[4:1],,,
{4}5w1[8:1],5,4w8[8:1],4,
{4}5w1[8:1],5-3[8:1]*-7[8:1],5-8[8:1]*-2[8:1],5b,
{16}4/5,,7,5,6,,4/7,,5/6,,2,4,3,,2/5,,
{8}3-8[8:1]/4-7[8:1],25,34,,1-4[8:1]*-6[8:1],,1b,,
{4}4w8[8:1],4,5w1[8:1],5,
{8}35,17,46,28,3V14[8:1]/7V58[8:1],,37,,
{4}2-5[8:1]/8-5[8:1],2/8,1-4[8:1]/7-4[8:1],1/7,
{32}1bx,2x,3x,4x,5x,6x,7x,8x,
1bx,2x,3x,4x,5x,6x,7x,8x,
{8}1bx-5[8:1],,,,
||CHIPMUNK
{8}3/7,4^2[8:1]/6-2[8:1],,6^8[8:1]/4-8[8:1],,4-1[8:1]/6-1[8:1],,4/6,
{8},7,6,2,3/4,5,3/4,2,
{8}18,8-4[8:1]/1-3[8:1],,1-5[8:1]/8-6[8:1],,1>8[8:2]/8q1[8:2],,18,
{16},,,,26,,,,
{595}3/7,,,,,,,,,,,,,,,,,,,,,,,,,,,,,,,
{673}4,,,,,,,
{595}8,,,,,,,,,,,,,,,,,,,,,,,,,,,,,,,
{673}5,,,,,,,
{8}1,2b/6b,,
{8}7/3,8^6[8:1]/2-6[8:1],,2^4[8:1]/8-4[8:1],,8-5[8:1]/2-5[8:1],,8/2,
{8},3,2,6,7/8,6,4/5,6,
{8}17,7/1V35[8:1],,1/7-3[8:1],,1-5[8:1]/7-1[8:1],,17,
{16},,,,26,,,,
{595}4-1[8:1]/5-8[8:1]b,,,,,,,,,,,,,,,,,,,,,,,,,,,,,,,
{673}3,,,,,,,
{595}6,,,,,,,,,,,,,,,,,,,,,,,,,,,,,,,
{673}2,,,,,,,
{8}7,4b/5b,,
{8}18,2/7-5[8:1],,7/8-4[8:1],,1-3[8:1]*-5[8:1]/8,,1,
{8},7,6,5,41,2,36,7,
{8}48,4p8[8:1]/8p4[8:1],,8>3[8:1]/4<7[8:1],,48,,5,
{4}4b^1[8:1],5b^8[8:1],1bs5[8:1]b,8b,
{8}36,6/3-1[8:1],,3/4-8[8:1],,5-7[8:1]*-1[8:1]/4,,5,
{8},3,2,1,85,6,72,3,
{8}45,6,78,6,45,3,21,8,27,,
{16},4b/5b,,,1bs5[8:1]/8bz4[8:1],,,,1b/8b/Cf,,,,
||MINI
DROP
{4}1x-4[8:1]/3x,1-6[8:1]/7,
{4}1>5[8:1]/3,1<5[8:1]/7,
{4}1V35[8:1]/3,1V75[8:1]/7,
{8}3,2,1,8,
{4}8-2[8:1]*v3[8:1],8-6[8:1]*v5[8:1],8-2[8:1]*v3[8:1],8^6[8:1]*-4[8:1],
{4}8x-5[8:1]/C,8x-4[8:1]*^2[8:1]/C,8x-3[8:1]/C,8x/C,
{4}8-5[8:1]/6,8-3[8:1]/2,
{4}8<4[8:1]/6,8>4[8:1]/2,
{4}8V64[8:1]/6,8V24[8:1]/2,
{8}5,6,7,8,
{8}1x/5x,1x/5x,2x/6x,2x/6x,3x/7x,3x/7x,8x/4x,8x/4x,
1xs5[8:4]/5xs1[8:4],,,,,,,,
||BREAK
{8}26,,3,5,4h[4:1],6,5h[4:1],4,
{4}3>6[8:2],6<3[8:2],3>6[8:2],6<3[8:2],
{8}3,,6,4,5h[4:1],3,4h[4:1],5,
{4}6^1[8:1],3^8[8:1],5q2[8:1],4p7[8:1],
{8}5,,3,7,5h[4:1],1,2h[4:1],6,
{4}7h[4:1],3,3h[4:1],7,
{4}2h[8:2]/3-8[8:1],3,7h[8:2]/6-1[8:1],6,
{16}7,5,6,,
2,4,3,,
8,5,6,,
1,4,3,,
{8}6b/2b,,7,1,8h[4:1],2,1h[4:1],8,
{4}7<2[8:2],2-5-7[8:2],7-4-2[8:2],2>7[8:2],
{8}7,,2,8,1h[4:1],7,8h[4:1],1,
{4}2^5[8:1],7^4[8:1],1v6[8:1],8v3[8:1],
{8}1,,7,3,1h[4:1],5,6h[4:1],2,
{4}3h[4:1],7,7h[4:1],3,
{4}8/7-4[8:1],7h[8:1],1/2-5[8:1],2h[8:1],
{8},1,1,25,3/4,2,5/6,74,
||INTERMISSION
{8}8,8-4[8:1],,8-2[8:1]/3,,5/8-6[8:1],,8/2V46[4:1],
{8},7,8,1V35[4:1],6,7,8,8,
{8}18,1-3[8:1]/8-4[8:1],,1-5[8:1]/8-6[8:1],,8-4[8:1]/1,,,
1bV35[6:1]b,,5b-2[8:1]b,,8b-5[8:1]*-3[8:1],,8b/Cf,,
{8}4,4-8[8:1],,4-6[8:1]/7,,1/4-2[8:1],,4/6V82[4:1],
{8},3,4,5V71[4:1],2,3,4,4,
{8}54,5-7[8:1]/4-8[8:1],,5-1[8:1]/4-2[8:1],,4-8[8:1]/5,,,
5bw1[8:1]b,,,,1bw5[8:1]b,,,,
{8}8,8-4[8:1],,1-5[8:1]/8,,1/2-6[8:1],,27,
{16},,81,,7,6,45,,3,,12,3,47,,6,,
{8}5,4/5v8[8:1],,4p1[4:1],,5v7[8:1],,,
4b^1[8:1]b,,8b^5[8:1]b,,4bw8[8:1],,4b/Cf,,
{8}4,4-8[8:1],,5-1[8:1]/4,,5/6-2[8:1],,63,
{16},,45,,3,2,81,,7,,56,7,83,,2,,
{8}1,8/1v4[8:1],,8p5[4:1],,1v3[8:1],,,
6b>2[8:1]*<2[8:1],,,,8bV24[8:1]*V64[8:1],,,,
{16}3,2,5,6,2,1,6,7,
8p4[8:1]b*q4[8:1]b,,,,8b/Cf,,,,
||partA
{16}3x/7x,,6,5,6,,3,4,3,,7,5,6,,2,4,
{16}3,,8,5,6,,1,4,3bv5[8:1],,,,6,,,,
{16}8/1,,3,4,3,,8/1,,8/1,,6,5,6,,8/1,,
{16}7/2,,81,27,6/3,,72,,5^8[8:1]/4^1[8:1],,,,4b/5b,,,,
{16}8/1,,6,5,6,,3,4,3,,7,5,6,,2,4,
{8}3,1/2,3/4,5/6,8b/7bv4[8:1],,3,3,
{8}2,1/3,8/4,7/5h[4:1],,6,45,34,
{32},,,,35,2,1,8,,,,,24,5,6,7,,,,,6h[4:1]/1h[4:1],,,,,,,,,,,,
{4}2-7[8:1]*-4[8:1],2,6-8[8:1]*-3[8:1],6,
{4}2-7[8:1]/6-3[8:1],2>5[8:1]/6<1[8:1],2-6[8:1]/6-2[8:1],2b/6b,
{16}8/1,,3,1,2,,8/3,,1/2,,6,8,7,,6/1,,
{8}7-4[8:1]/8-3[8:1],61,78,,5^8[8:1]*^2[8:1],,5b,,
{4}1w5[8:1],1,8w4[8:1],8,
{8}71,53,82,64,7v5[8:1]/3v1[8:1],,73,,
{8}6^1[8:1]/4^1[8:1],C,6/4,,5^8[8:1]/3^8[8:1],C,5/3,,
{32}1b,2,3,4,5,6,7,8,
1b,2,3,4,5,6,7,8,
{8}1bs5[8:1]b/5b,,,,
||SILENT
{4}7qq5[8:1],1pp3[8:1],
8qq6[8:1],2pp4[8:1],
7qq5[8:1],1pp3[8:1],
8qq6[8:1],4qq2[8:1],
8p3[4:1],3p6[4:1],
6p1[4:1],1<1[2:1]b,
Cf,1V75V31[2:1]b,
Cf,1,
{4}3qq1[8:1],5pp7[8:1],
4qq2[8:1],6pp8[8:1],
3qq1[8:1],5pp7[8:1],
4qq2[8:1],8qq6[8:1],
4p7[4:1],7p2[4:1],
2p5[4:1],5p8[4:1],
8b<3[4:1]b,3b>6[4:1]b,
6bv4[8:1]b,B5f,
||SILENT
CHIPMUNK
{8}3x/7x,1-5[8:1],,1^3[8:1]*^7[8:1],,1v6[8:1]*v4[8:1],,1,
{8},4,5,6,7/8,1,7/8,6,
{16}7-4[8:1]*-5[8:1],8,7,8,7,,,,2-4[8:1]*-5[8:1],1,2,1,2,,,,
{16}6/8,,,,1/3,,,,
{595}3/6,,,,,,,,,,,,,,,,,,,,,,,,,,,,,,,
{673}2,,,,,,,
{595}7,,,,,,,,,,,,,,,,,,,,,,,,,,,,,,,
{673}1,,,,,,,
{8}8,2b/7b,,
{8}2/6,8-4[8:1],,8^2[8:1]*^6[8:1],,8v5[8:1]*v3[8:1],,8,
{8},5,4,3,1/2,8,1/2,3,
{8}1^6[8:1]/2,3,4,5,7/8^3[8:1],6,5,4,
{4}1b-4[8:1]/8b-5[8:1],1b<6[8:1]/8b>3[8:1],1bv4[8:1]/8bv5[8:1],1b/8b,
{8}7/3,5-1[8:1]b,,5-8[8:1]*-2[8:1],,5w1[8:1],,5,
{8},8,1,2,3/4,5,3/4,2,
{16}3-1v4[8:1]/4,5,6,7,83,,,,6-8v5[8:1]/5,4,3,2,16,,,,
{16}2/4,,,,5/7,,,,
{595}46,,,,,,,,,,,,,,,,,,,,,,,,,,,,,,,
{673}3,,,,,,,
{595}7,,,,,,,,,,,,,,,,,,,,,,,,,,,,,,,
{673}2,,,,,,,
{8}8,7b/3b,,
{8}6/2,4-8[8:1]b,,4-7[8:1]*-1[8:1],,4w8[8:1],,4,
{8},4,5,6,78,1,78,6,
{8}1/2,3,4,5,7/8,6,5,4,
{4}1/8,
{16},2/7,,,5p8[8:1]/4q1[8:1],,,,4b/5b/Cf,,,,
||MAIN
DROP
{4}4/8^5[8:1],4/8^3[8:1],4/8-5[8:1],4/8-3[8:1],
{8}4/8V64[6:1],,4/8V24[6:1],,5x/8,6,7,8,
{4}1-5[8:1]/2-4[8:1],1-7[8:1]/2-6[8:1],1-5[8:1]/2-4[8:1],1-7[8:1]/2-6[8:1],
{8}1/2,,4,4,5,2/8,4,1/7,
{4}5/1^4[8:1],5/1^6[8:1],5/1-4[8:1],5/1-6[8:1],
{8}5/1V35[6:1],,5/1V75[6:1],,1/4x,3,2,1,
{8}7/8,6,4/5,3,1/2,3,4/5,6,
{4}2/7,{16},{24}45,,,{16},Cf/B4/E5/B8/E1,,,,{24}1b/8b,2b/7b,3b/6b,,,,
{24}5/1-4[8:1]*-4[8:1],,,,,,5/1-6[8:1]*-6[8:1],D2,D3,D4,,,5/1-4[8:1]*-4[8:1],D1,D8,D7,,,5/1-6[8:1]*-6[8:1],D2,D3,D4,,,5/1-4[8:1]*-4[8:1],D1,D8,D7,,,5/1V75[6:1]*V75[6:1],D2,D3,D4,,,
{8}1/4,3,2,1,
{24}
7-2[8:1]*-2[8:1]/8,,,,,,
7-4[8:1]*-4[8:1]/2,3,4,5,,,
7-2[8:1]*-2[8:1]/4,3,2,1,,,
72,3,4,5,,,
37,,,,,,
{8}3/5,3/5,4,1/7,5,2/8,
{24}4/8-5[8:1]*-5[8:1],,,,,,4/8-3[8:1]*-3[8:1],D8,D7,D6,,,4/8-5[8:1]*-5[8:1],D1,D2,D3,,,4/8-3[8:1]*-3[8:1],D8,D7,D6,,,4/8-5[8:1]*-5[8:1],D1,D2,D3,,,4/8V24[6:1]*V24[6:1],D8,D7,D6,,,
{8}4/8,5,6,7,
{16}8,1,7,2,8,1,7,2,
{641}8,,,,,,,,,,,,,,,,,,,,
{639}7,,,,,,,,,,,,,,,,,,,,6,,,,,,,,,,,,,,,,,,,,
{641}5,,,,,,,,,,,,,,,,,,,,4,,,,,,,,,,,,,,,,,,,,
{639}3,,,,,,,,,,,,,,,,,,,,2,,,,,,,,,,,,,,,,,,,,
{641}1,,,,,,,,,,,,,,,,,,,,
{625}8,,,,,,,,,,,,,
{622}7,,,,,,,,,,,,,
{625}6,,,,,,,,,,,,,5,,,,,,,,,,,,,
{622}4,,,,,,,,,,,,,
{625}3,,,,,,,,,,,,,2,,,,,,,,,,,,,
{622}1,,,,,,,,,,,,,
{625}8,,,,,,,,,,,,,7,,,,,,,,,,,,,
{622}6,,,,,,,,,,,,,
{625}5,,,,,,,,,,,,,
{12}4b,,,
3,4,2,6,5,7,
{595}2/6,,,,,,,,,,,,,,,,,,,,,,,,,,,,,,,
{673}7,,,,,,,
{595}3,,,,,,,,,,,,,,,,,,,,,,,,,,,,,,,
{673}8,,,,,,,
{595}4,,,,,,,,,,,,,,,,,,,,,,,,,,,,,,,
{673}1,,,,,,,
{16}5,
{8}2b/6b,,
||BREAK
7,5,8h[4:1],,1h[4:1],,
{4}4h[1:1],A2,A3,B4,
{8}A3,,2,4,1h[4:1],,8h[4:1],,
{4}5h[1:1],A7,A6,B5,
{8}A6,,7,5,8h[4:1],,2h[4:1],,
{4}6h[4:1],A3,3h[4:1],A6,
{4}6h[4:1]/7h[4:1],C/B2/B3/E3,2h[4:1]/3h[4:1],C/B6/B7/E7,
{4}1/8,1w5[8:1]/8w4[8:1],1/8/Cf,,
{8}3b/6b,,2,4,1h[4:1],,8h[4:1],,
{8}5h[1:1],,B7/E7/E8,C,B3/E3/E4,,B1,,
{8}B5,,7,5,8h[4:1],,1,,
{16}5,5,34,,2,2,34,,34,,5,,3-8[8:1]/4-7[8:1],,2,,
{8}34,,2,4,1h[4:1],,7h[4:1],,
{4}5h[1:1],E6/B6/E7,E5/B4/E4,E1/B1/E2,
{8}7h[2:1],,8,,6,,1/8,1/8,
{8},1,1,2,3/4,2,5/6,7,
||BUILD
UP
{1}5qq1[8:5]*pp1[8:5]/4,
{16}2/7,,4,5,4,,4/5,,6/7,,,,2/3,,,,
{1}4pp8[8:5]*qq8[8:5],
{16}2/7,,4,5,4,5,4,5,3/4,,,,8x,8x,8x,8x,
{1}8bqq5[8:5]b*pp3[8:5]/1,
{16}3x/6x,,1,8,1,,1/8,,7/6,,,,3/2,,,,
{1}1pp4[8:5]b*qq6[8:5],
{16}3x/6x,,1,8,1,8,1,8,2/1,,,,8b,8b,8b,8b,
{16}8b,,,5/7,,,2/5h[8:3],,,,1b,,1b,,,,
{16}1/8,,,2/4,,,7/4h[8:3],,,,8b,,8b,,,,
{16}1/8,,,5/7,,,2/4h[8:3],,,,1b,,1b,,,,
{16}1/8,,,2/4,,,7/5,,8b,,4b,5b,4b,5b,4b,5b,
{8}4h[4:1],1,5h[4:1],8,4h[4:1],1,5h[4:1],8,
{8}4h[4:1],A1/E1/B1,5h[4:1],A8/E1/B8,4h[4:1],A1/E1/B1,5h[4:1],A8/E1/B8,
{8}4,4/8,3/7,3/7,2/6,2/6,1/5,1/5,
{16}6,2,7,3,8,4,1,5,
1,8,7,6,5,4,3,2,
||CLIMAX
{16}1w5[19#80:1]b,1,1,1,1,1,1,1,1,1,1,1,1,1,1,1,
{16}1,1,1,1,1,,,,1,1,1,1,1,,,,
{16}1,1,1,1,1-5[8:1],,,,1b/Cf,,,,,,,,
||partA
going
high
{16}1/8,,2,4,3,,7,5,6,,2,1,2,,7,8,
{16}7,,2,1,4w8[8:1]b*-8[8:1],,,,4b,,,,56,,34,,
{16}1/2,,,,
{24}8/6h[8:1],1,2,
{8}3,7/8,,
{24}1/3h[8:1],8,7,
{8}6,
{8}1/8,2/7,3/6,4/5,4z8[8:1]b/5s1[8:1]b,,4b/5b/Cf/B2/B3/B6/B7/E3/E7,,
{16}1x/8x,,2,4,3,,7,5,6,,2,1,2,,7,8,
{16}7,,2,1,4,,7,8,5v8[8:1]*v2[8:1],,,,5b,,,,
{16}1/8,,7,8,7,,2,1,2,,38,,47,,5/6h[8:3],,,,
{32}1b,2,3,4,{8}5h[8:2],
{32}2b,1,8,7,{8}6h[8:2],
{32}1b,2,3,4,{8}5,,
{16}1/2,,3,4,3,,6,5,6,,8,7,8,,1,2,
{16}1^4[8:1]b,,,,
{24}1^6[8:1]b,4,5,{8}6,
{24}1w5[8:1]b*-5[8:1],6,5,4,,,1b,,,,,,
{8}8/1<5[8:1]b,,
{32}1/7h[8:1],E1,E8,E7,
{8}E6,1/8>4[8:1]b,,
{32}8/2h[8:1],E1,E2,E3,
{8}E4,
{8}1/8,2/7,3/6,4/5,4w8[8:1]/5w1[8:1],,4b/5b/Cf/B7/B8/B1/B2,,
{16}4/5,,2,4,3,,7,5,6,,1,4,3,,7/8,,
{8}2b/4b,5b/7b,1b/3b,6b/8b,2b/7b,,34,34,
{32}1b,2,3,4,
{8}5h[8:3],8,8,
{32}8b,7,6,5,
{8}4h[8:3],1,1,
{16}1,8,2,7,1,8,3,6h[16:9],
{32}1b,2,3,4,5,,7,8,
1b,2,3,4,5,,7,8,
||END
{1}1b>8[4:5]b,
{16}1>4[4:1],,,,,,,,,,,,,,8z4[380.00#1:2],8,
{1}8,
{4},Ch[8:9]/2-6[42.22#36:1],{1},,
