&title=重ね合わせの猫箱
&artist=佐々木李子 「重ね合わせの猫箱」『うみねこのなく頃に咲 ~猫箱と夢想の交響曲~』|エンターグラム
&first=0.6
&des=Azuki
&lv_5=13+
&inote_5=(126)
{1},,,
{4},,,{16},,B3,B5,
{8}1v3[8:2],,B7,,B1,,3-7[8:1],,
{8}6v4[8:2],,B8,,2-6[8:1],,4-8[8:1],,
{8}1,2,3,4,1/5,2/6,3/7-3[8:1],4s8[8:3]/8,
{8},,,,5bh[8:2],,1V37b[16:3],{16}3,8,
{8}1,6,5h[8:1],8,{16}2,1,,B3/B4,C/B6,,15,,
{8}3h[8:2],B8/E1,7h[4:1],B5/C,{48}2x,D3,A3,D4,A4,D5,A5,D6,A6,,,,{16}8h[8:1],,E7`C`E3,,
{8}5h[8:1],2,4h[8:1],8,{16}6,5,,B7/B8,C/B2,,48,,
{8}3h[8:2],B8/E1,7h[4:1],B5/C,{16}3<8[8:1],,7>4b[8:1],,,,,,
{16}6h[16:6],,,,,,4-6[32:3],,,,,,7s3[8:2],,8,,
{16}7h[16:6],,,,,,4-1[32:3],,1-5[32:3],,,,,,6,5,
{16}7h[4:2],,,,6,,,,4<2[16:3],,,,3p7[8:1]*q7[8:1],,,,
{16},,,,8-5[8:1],,,,Ch[16:4],,,,B7/B2,,,,
{16}2h[16:2],,4,,5h[16:2],,3,,2v8[8:1],,,,7,,7V53[8:2],,
{16},,8,,1-6[8:1],,2-7[8:1],,,,,,,,6,5,
{16}7h[8:2],,6,,4h[4:1],,5,,7h[4:1],,8,,1,,26,,
{16}2,2,4,4,5,5,7,7,1,,1h[8:1],,B7/B6/E7,E3/B2/B3,C,,
{8}4bV28[16:7]V64[16:7]*s8[8:3],4b,,,,,,,
{8}3V17[16:7]V53[16:7],3,,,,,,,
{8}2V86[16:7]V42[16:7]b,2,,,,,,,
{8}1V75[16:7]V31[16:7]*s5[8:3],1,,,,,,,
{8}8,6-1[8:1],,6-2[8:1]*-3[8:1],,,,,
{8}23,1-4[8:1]/8-4[8:1],,1-5[8:1]/8,,6,7,8b,
{16}2,2,4h[8:1],,5,,7,,45,,2,,78,,5h[8:1],,
{16}3,4,2,4,1,4,8,4,7b>7[8:2]b,,,,,,,,
{16}8-4b[8:1],,,1,8,,2,,3^2^1^8b[8:1],,,4,3,,5,,
{16}6^5^4^3b[8:1],,,7,6,,8,,1-5b[8:1],,,,12,,3,3,
{16}4h[4:1],,2,,1h[4:1],,3,,4h[4:1],,3,,1h[4:1],,2v7[16:9]*>7[16:9],,
{16},,,,,,,,,,,,,,86,,
{16}3/E1/B8/B1,,,7/B5/B4,,,2/C,,6h[8:3],,,,,,8,,
{16}1V73-5[16:3]/Cf,,5x,5x-2[16:1],,,8x,,7V15[16:2],,6,2,,,1x,,
{16}2pp4[16:2],,4xpp6[16:2],4x,,,1,,8V26[16:2],,7,1-4[8:1],,,,,
{8}8,6,35,2,1/4pp8[16:5],,1,2^7[8:1],
{8},3p6[8:1]*pp5[8:1],4,,,47,36,25,
{8}7-3[8:1]/4,6,7/1-5[8:1],2,1/8-6[32:3],8-3[32:3],8<1[8:2],,
{16}8,,,,4h[16:8],,8,,7,,6<2[8:1],,5h[8:2],,,,
{16},,34,,87,,5v2[8:1],6,5-1b[32:3]*v8[32:5],,,,,,,,
{32}2x,3x,4x,5x,1x,8x,7x,6x,4x,3x,2x,1x,7x,6x,5x,4x,{8}3bxh[16:4]/2bx-6[8:1],1,2`Cf,,
{16}5V37-1[16:3],,1x,1x-5[16:1],,,4x,,3V58[16:2],,2,6,,,5x,,
{16}6p8[16:2],,8xp2[16:2],8x,,,3,,4-7-3[16:2],,3,5-1[8:1],,,,,
{8}4,8,71,62,5/3pp1[16:5],,5,6>2[8:1],
{8},7p1[8:1]*v8[8:1],8,,,8/3,7-2[8:1]/3,6/3-6[8:1],
{8}7-4[8:1],3-8[8:1],,,,1/5,2-6[8:1]/6,3/7-2[8:1],
{8}2-5[8:1],7-4[8:1],,,,4/5,3^1[32:3]/6,2/7^5[32:3],
{8}3-7[8:1],7-3[8:1],,,,1,3-7[8:1]/7-3[8:1],5,
{8},,,7/6qq3[8:3],8,1^7[8:1],2,,
{8},,2/6,2pp2[8:2]/6,,1,8,7,
{16}6,6,5,7,3h[8:5],,1b>8b[8:5],,,,,,,,,,
{8},,1,,36,4-1b[8:1],{16}5-8b[8:7],,4b,,
{8}6b,,,,,,1,2,
{8}3p7[8:1],4,3/6^3[8:1],5,1s5^4z8[16:5]/6,2,,,
{16}7^5[32:3],,,8x,7,,1,,7-4[8:1],,,8x,7,,2,,7-3-8-4[8:2],,,8x,7,,4x,,
{8}2h[8:2],,1-4b[8:29],,
{4}E8,E7,B6,B5,E8,E7,B6,B5,
{4}8,7,6,5,{16}2,2,1,3,7,7,8,6,
{16}1,1,1,1,8p4b[32:3],8,8,8,
