&title=空間創造理論
&artist=Sound piercer
&first=0.07
&des=● — ⊿ ◇
&lv_4=13+
&des_4=Silver_Glaze_
&lv_5=13+
&des_5=● — ⊿ ◇
&inote_4=(138)
{1},,
(69)
{2}5w1[8:1],
{8}1,2,3,4,
{32}6,5,4,3,6,5,4,3,7-4[16:1],,,,36,,,,7/1-6[16:1],,,,83,,,,1/2pp5[4:1],,,,E8/B7/B8,,,,6h[16:1],,,,7,,7h[16:1],,,,8,,8h[8:1],,,,2,3,4,5,1,2,3,4,15,26,37,48,1b/5b,,,,
{32}7-2[16:1],,6,,1,8,1,,7,,3h[16:1],,4x,3,,,
{32}7v2[16:1],,6,,1,8,1,,7,,3h[16:1],,4x,3,,,
{32}6>7[8:1],5,6,5,7>3[32:3]b,4,7,4,,,,,,,,,8x,7x,8x,7x,1,6,1,6,2,3,4,5,C,,,,
{64}6,,5,6,4,,6,,5>2[16:1],,6,4,6,,5,,6,,4,6,5,,6,,5x,,,,,,,,
{64}1,,8,1,7,,1,,8-4[16:1],,1,7,1,,8,,1,,7,1,8,,1,,8x,,,,,,,,
{64}3,,4,3,5,,3,,4<7[16:1],,3,5,3,,4,,3,,5,3,4,,3,,4x,,,,,,,,
{64}8>3[32:6],,1,8,2,,8,,1v4[24:1],,8,2,8,,1,,8x,,,,,,,,1x,,,,,,,,
{64}6xh[32:1]/5xh[64:3],,,,6h[16:1],,5h[64:4],,,,,6h[64:3],,,5h[32:5],,B8f,,,,,,,,4b,,,,,,,,
{64}3xh[32:1]/4xh[64:3],,,,3h[16:1],,4h[64:4],,,,,3h[64:3],,,4h[32:5],,B1f,,,,,,,,5b,,,,,,,,
{32}4,5,4,6,4-8[24:1],7,4,8,{64}1-5[24:1],2,3,4,5,6,7,8,4b,,,,,,,,
{32}1/5-2[24:1],,,78,,,36,,5,,,,8b/1b,,8b/1b,,
{32}7-4[16:1],,1,1,,5,6,5,7,,,,36,,,,
{32}2-5[16:1],,8,8,,4,3,4,2,,,,63,,,,
{32}7-4[16:1],,8,8,,5,4,3,7,,,,36,,,,
{32}2-5[16:1],,1,1,,4,5,6,2,,,,63,,,,
{32}7-4[16:1],,4q1[16:1],4,,3,2,1,7b,,,,3,3,3,,
{32}2-5[16:1],,5p8[16:1],5,,6,7,8,2b,,,,6,6,6,,
{32}4,5,4,6,4-8[24:1],7,4,8,{64}1,2,3,4,5,6,7,8,4b,,,,,,,,
{32}72,,6,75,,3,24,,45,45,54,45,3b/6b,,,,
{32}3,4,5,6,3,4,5,6,2-5[16:1],,,,7-4[16:1],,,,2V83[16:2],,,,7-4-7[8:1]b,,,,2,,,,4,,,,
{32}3x,3x,3x,,3x/4h[16:1],3x,3x,,3x/5h[16:1],,3x,,6h[16:1]/3x,3x,2,2,
{64}7,6,5,4,1,,7,,2,3,4,5,8,,2,,{64}7V13[8:1],6,5,4,3,2,1,8,7/3,,,,,,,,
{32}7V51[8:1]/5h[16:1],,,,,5,4,3,7>2[12:1],,,,A3/B3,,,,7V51[8:1]/5h[16:1],,,,,5,4,3,7V16[8:1],,,,A3/B3,,,,7V51[8:1]/5h[16:1],,,,,5,4,3,7^1^3[8:1]*^1^3^5[16:3]*^1^3^5^7[4:1],,,,,,,,
{16}A7,A1,A3,A5,{64}E8,E1,E2,E3,E4,E5,E6,E7,C,,,,,,,,
{32}3,4,5,6,3,4,5,6,
{16}2^7[16:1],,6^3[16:1],,6-1[16:1]/2,,6/4-1[16:1],,6^4[16:1],,4,,
{32}6/3x,3x,3x,,3x/4xh[16:1],3x,3x,,3x/5h[16:1],,3x,,6h[16:1]/3x,3x,2,2,
{64}7,6,5,4,1,,7,,2,3,4,5,8,,2,,{64}7-1-3-5-7[2:1],6,5,4,3,2,1,8,{8}7/3,,,8-2-4-6-8[2:1]b,,,,1x-3-5-7-1[2:1],,,,2xw6[8:3]b,,,,,,Cf/B7/B6/B3/B2,,,,,,,,
{2}Ch[1:2]/2p5[2:1],,7>4[2:1],,5p3[2:1],
{8},,,
{32}4,5,6,7,8b,,2b-6[32:3],,,6b-1[32:3],,,1b-4[32:3],,,3b-7[32:3],,,7b-2[32:3],,,2b-5[32:3],,,5xb-1[32:3],,,1b-6[32:3],,,6b^3[32:3],,,3b-8[32:3],,,7b,,7b-2[32:3],,,2xb-5[32:3],,,5b-8[32:3],,,8b-4[32:3],,,4b-1[32:3],,,2b-5[32:3],,,5b-7[32:3],,,6bx,,,2bx,,,4bx,,,
{32}1,8,1,8,2,7,2,2,6,5,6,5,7,4,7,7,3,5,2,6,3,5,4,4,7,8,6,1,7,8,6,6,4,4,5,5,3,3,7,7,1,1,8,8,2,2,6,6,
{64}5-2-4-7-1[32:6],4,3,2,1,8,7,6,5,4,3,2,1,8,7,6,{4}5,
{32}7^4[16:1],,7,,8s4[32:3],8h[16:1]/6,,,7-3-5[8:1],,1,,1h[16:1]/8,,,,2,,2,,1<6[16:1],1h[16:1],,,2-6-8[8:1]/8,,28,,1/2-4[16:1],,,,2h[16:1],,,,2x,1x,,6,5/6-1[16:1],,73,,2-5[16:1],28,,7,64,,3,,82,,7,,4-8[16:1]/6-2[16:1],5,46,73,82,,,,
{32}46,,,,1,1,8,2,5-1[16:1]/3-7[16:1],,,,62,,,,53,,,,8,8,1,7,4-8[16:1]/6-2[16:1],,,,37,,,,46,,,,1,1,8,2,5-1[16:1]/3-7[16:1],,,,62,,,,53,,,,8,8,1,7,{96}6,5,4,3,,,,,,,,,
{32}5,4,3,2,1-6[16:1],,78,,3,4,3,4,1/5x-2[16:1],,7x,,7,4,6,4,5,,3h[8:1],,4,5,6,7,8-3[16:1]b*<5[4:1],,26,,84,37,26,15,8/4>1[4:1],,,,,2,,2,1qq5[4:1]b,,,,,4,,4,5<4[4:1],,,,,6,,6,4-6-8-2-4[8:11],,,,,,,,2x,,1,2,,8,7,8,7,,,,,,,,2x,,1,2,,8,7,8,7,,,,,,,,2x,,1,2,,8,7,8,7^5^6-8z4-2^1^3[8:3]b,,,,,,,,,,,,,,,,,,,,,,,,
{32}3-5[16:1],,3,4,,2,1,3,3,,,,7,,,,3-6[16:1],,3,4,,2,1,3,3,,,,7,,,,3-7[16:1],,3,4,,2,1,3,3,,,,6,,,,
{64}7,6,5,4,1,,7,,2,3,4,5,8,,2,,7,6,5,4,1,,7,,3b,,,,,,,,
{32}3,4,5,6,3,4,5,6,2,,,,65,,,,3,,,,78,,,,4,,,,21,,,,1,,,,2,,,,3/5-2[8:1],,,,4/6-1[8:1],,,,
{96}A3/7^1-5[16:3]b,E4,E5,,,,,,,,,,B2,C,B6,,,,,,,,,,E1,E8,A7,,,,,,,,,,Cf,,,,,,,,,,,,
{1},,
E
&inote_5=(138)
{1}
,,
{8}
4bxz8[2:1]/5bxs1[2:1],
,,,,,,,Ch[4:3]/5,,6,,7,,8b,,
{16}
3,5,4,5,3,5,4,5,3,6,5,6,4,6,5,6,4,,7,,5,6h[16:2],,4,5,3,4h[8:1],,2,4,,,2x/7,,,,27,,1x,,27,,,,2/7x,,,,27,,8x,,27,,,,2x-6[8:1]/7,,,,2/7x,,,,
2h[8:1]/8,,1,,3,4h[8:1],,2,4,,1h[8:1],,6,8,7,1,8h[8:1],,2,,7,3h[8:1],,5,3,,6h[8:1],,3,5,2,4,1,8,2,7,1,8,2,7,4,5,3,6,4,5,3,6,2,2,8,8,6,6,4,4,1-5b[8:1],8,2,7,1b,,,,
{16}2x,
{32}E7,B6,B5,,1,,7x,,E3,B3,B4,,8,,2x,,E7,B6,B5,,1,,8bx,,,,,,,,
{16}7x,
{32}E3,B3,B4,,8,,2x,,E7,B6,B5,,1,,7x,,E3,B3,B4,,8,,1bx,,,,,,,,
{16}2x,
{32}B7,B6,E6,,1,,7x,,B2,B3,E4,,8,,2x,,B7,B6,E6,,1,,8bxh[8:1],,,,,,,,
{16}7x,
{32}B2,B3,E4,,8,,2x,,B7,B6,E6,,1,,7x-3[8:1],,,,,,,,3b,,,,,,,,
{32}
7,,3,4x,5x,,8,,2,,7,6x,5x,,3,,8bx,,2,3x,4x,,7,,1b,,,,,,,,
2,,6,5x,4x,,1,,7,,2,3x,4x,,6,,1bx,,7,6x,5x,,2,,8b,,,,,,,,
7,,2,3x,4x,,8,,1,,7,6x,5x,,2,,8bx,,3,4x,5x,,7,,
{16}1,1,8,8,3bh[8:1],,5,5bh[8:1],,8,8bh[8:1],,6h[16:3],
{32}1x,2,3,4,5h[16:3],,8bx,,,,8bx,,,,
{16}17,,2,5,4,5,3,6,5-1[8:1],,7,,3h[16:1],,,,
{16}82,,7,4,5,4,6,3,4-8[8:1],,2,,6h[16:1],,,,
{16}7,,3,5,4,5,2,6,5-1[8:1],,7,,3h[16:1],,,,
{16}2,,6,4,5,4,7,3,4-1[8:1]*-7[8:1],,,,4,,,,
{16}6h[8:1]/2,,4,6,3,7,2,8,1-5[8:1],,7,,3,3,,,
{16}3h[8:1]/7,,5,3,6,2,7,1,8-4[8:1],,2,,6,6,,,
{16}2,4,3,4,2,5,4,5,2,6,5,6,
{32}2,3x,4x,,
{16}8,2,1bh[8:1],,4,4bh[8:1],,6,6bh[8:1],,3h[16:3],
{32}1x,8,7,6,5h[16:3],,1bx,,,,1bx,,,,
{16}2,4,2,4,3,5,3,5,4,6,4,6,5,7,5,7,
{32}3x,,B6,B5,E5,,2,,8,,B3,B4,E5,,7,,1h[8:1],,,,8,,
{16}4,5,3,4,,
6,5,7h[8:1],,3,4,2h[8:1],,8,,17,,2,8,1,8,3,8,1h[8:1],,7,8,6h[8:1],,1-5[8:1],,28,,1b,,,,
{16}46,,3,8,2,8,1,7,8V64[8:1],,6,,2,2,,,
{16}53,,6,1,7,1,8,2,1V35[8:1],,3,,7,7,,,
{16}46,,2,8,3,7,4,6,5-1[8:1],,7,,3,3,,,
4/6h[8:1],,3h[8:1],,5,2h[8:1],,7,1-6[12:1]*-4[12:1],,5,,1b,,,,
{16}7,5,7,5,6,4,6,4,5,3,5,3,4,2,4,2,
{32}6x,,B3,B4,E5,,7,,1,,B6,B5,E5,,2,,8h[8:1],,,,1,,
{16}5,4,6,5,,
3,4,2h[8:1],,6,5,7h[8:1],,1,,82,,7,1,8,2,6,1,
{32}7,6x,5x,4x,
{16}
1,8,
{32}2,3x,4x,5x,
{16}8w4[8:1],,71,,8b,,,,
{16}53,,6,1,7,1,8,2,1>5[8:1],,3,,7,7,,,
{16}46,,3,8,2,8,1,7,8<4[8:1],,6,,2,2,,,
{16}2,8,2,8,3,7,3,7,4,6,4,6,5h[4:1],,,,
1b-4[8:1]*-3[8:1],,,,1b-6[8:1]*-7[8:1],,,,1b-5[8:1],,,,
1bw5b[8:1],,,,1b-4-2v5-8[4:6]*-6-8v5-2[4:6]`Cf,,,,,,,,,,,,,,,,,,,,,,,,,,,,,,,,
{1}Ch[1:1],1x-5[16:10],1xw5[16:10],1xV35[16:10]*V75[8:5],2xz6[8:4]/8xs4[8:4],
{4}1q5[8:1]/5q1[8:1],1V75[8:1]/5V31[8:1],1-5[8:1]/5-1[8:1],1b/5b,
{16}28,,2b-6[16:1]/8,,,5b-1b[16:1],,,3b-7[16:1],,,8b-4b[16:1],,,2b-6[16:1],,,7b-3b[16:1],,,1b-5[16:1],,,6b-2b[16:1],,,4b-7b[16:1]*-1b[16:1],,,4b,,,
35,,3b-7b[16:1]/5b,,,8b-4[16:1],,,5b-1b[16:1],,,7b-3[16:1],,,4b-8b[16:1],,,6b-2[16:1],,,3b-7b[16:1],,,5bh[16:3],,,2bh[8:1],,
{32}8x,7,6,5,4,,,,
{16}3,4,3,6,5,6,3,4,2,6,5,7,3,5,1,6,4,8,2,1,3,7,8,6,2,1,4,7,8,5,1,7,3,3,5,5,7,7,1,1,3,5,1,6,4,8,3,7,
{12}1s5[4:1],,,,,,Chf[4:1],,,1b,,,
{16}1/2-6[8:1],,3,,28,8h[8:1],,1,8-4[8:1],,7,,28,2,,,
8/7-3[8:1],,6,,71,1h[8:1],,8,1-5[8:1],,2,,71,7,,,
1/2-6[8:1],,3,,28,8h[8:1],,1,8,,7h[8:1],,5,7,5,7,4,6,4,6,3,5,3,5,2,4,2,4,1b-5[16:1],,,,1,,8,4,7,3,6,2,5-1[8:1],,7h[8:1],,5,8-4[16:1],,,8,,1,5,2,6,3,7,4-8[8:1],,2h[8:1],,4,1-5[16:1],,,1,,8,4,7,3,6,2,5-1[8:1],,7h[8:1],,5,8,,,
5x/3h[8:1],,6h[8:1],,4x,7h[8:1],,2,8x-3[12:1]*-5[12:1],,4,,8xb,,,,
1/7-3[8:1],,8,,7^4[8:1]/1,1,,8,7,,1,,2-6[8:1],1,3,7,2^5[8:1],,8,,2,1h[8:1],,2,8-4[8:1],,2,,8,1h[8:1],,5,3-7[8:1],,6,,3,8h[8:1],,4,1^6[8:1],,3,,1,2h[8:1],,7,1h[8:1],,6,,
{32}2,3x,4x,,
{16}7,1,
{32}7,6x,5x,,2,,8,,1b,,,,
{16},,2,4,3,4,2,5,4,5,2,6,5,6,1,1,7,7,5,6,5,6,4,6,5,6,3,6,5,6,2,6,5,6,
1b,8,3,4,2,7,5,6,1,7,3,5,2,8,4,6,3,1,1,2,8,8,1,7,
{32}1,2,3,4,5,6,7,8,1b/5b,,,,,,,,
{16}46,,3,8,2,8,1,7,8<4[8:1],,6h[16:1],,2,2,,,
{16}53,,6,1,7,1,8,2,1>5[8:1],,3h[16:1],,7,7,,,
{16}46,,2,8,3,7,4,6,5-1[8:1],,7h[16:1],,3,3,,,
8h[16:1],,
{48}2b,3,4,5,,,
{16}7h[16:1],,
{48}1b,2,3,4,,,
{16}8-4[8:1],1,7,2,8b,,,,
6,4,5,4,6,4,5,4,6,3,4,3,5,3,4,3,5,,2,,4,3h[16:2],,5,4,6,5h[8:1],,7,5,,,
4,,7,,5,6h[16:2],,4,5,3,4h[8:1],,2,4,,,
{4}8hx[4:3]/Ch[4:3],E2,E8,E1,
