&title=創世のコンツェルティーナ
&artist=大嶋啓之
&first=0
&des=Glowen
&clock_count=3
&lv_5=13+
&inote_5=(142)
{1},,
{2},1>8[4:19]*p8[4:8],
{1},,
{4},8q1[16:31],,,
{1},,
{1}8<1[4:19]/1p8[4:8],,
{4},,,8q1[16:31],
{1},,
{32},,,,,,,,,,4,,,,8,,,,2h[32:7]/7h[32:11],,,,,,,,,,,,,,
{18}3h[32:5]/6h[32:10],,,,,,,,,4>5[18:12],5,4p3[18:14],,,,,,,
{18},,,,,,,,,,,,,,,,5h[18:4],,
{18},,3>3[36:78],4,3,4,2h[36:87],,,
{4},,,,,,,,,
{4},1,1-5[12:2],
{4}18,6,6,{12}7,,6,5,,4,8-4[12:2],,,
{4}81,3,3,{12}2,,3,4,,5,1q5[12:2],,,
{4}18,7,7p3[12:2],17,2,2>5[12:2],
{4}26,6,6>7[8:4]*<5[8:4],,,,
{12}6h[4:2]/4,,,4,,,4,,,2h[4:2]/8,,,8,,,8,,,
{12}7h[12:3],,,4,,5,6V48[12:5],,,3h[4:1],,,,,,2,,,
{4}1,7h[12:3],5h[12:3],3>5[12:11],,4qq5[24:9],4b,,,
{12}6,{24}2,3,{12}4,7,5,6,1,3,2,
{12}8V64[12:2],,4-8[24:3],,,,1V73[12:2],2,3V15[24:5],1/4,,,,,,4,,6,
{12}1V35[12:2],,5-1[24:3],,,,8V26[12:2],7,6V84[24:5],8/5,,,,,,5,,3,
{12}8q4[8:1],,2v5[8:1],8-6[12:1],,2,8,,,4,4,5,3,3,7,2,2,6,
{12}1-5[8:1],,8-6[12:1],1>3[12:1],,8,1,,5V37[8:2],{4}4h[4:2],,,
{12}8V62[12:2],,2-8[12:1],,,,4,,7,3V15[12:2],,5-3[12:1],,,,6,,2,
{12}7V53[12:2],,3-7[24:3],,,,1,,,2>8[12:3],,,8q4[8:1],8,,,,,
{12}5,5,4,6,6,2,7,7,3,8-4[8:1],,,8/2-6[8:1],,,2/5>1[12:3],,,
{12}7h[12:3],,,,,,1,8,1,7,,3,4,,6,5bV73[4:2],,,
{12}2,,,3V51[4:2],,,2,,1,1V73[4:2],,,2,,,3V15[4:2],,,
{12}4,,,5V73[4:2],,,4,,3,3V51[4:2],,,2,,,2,,,
{12}3-7[8:1],,,7-1[12:1]*-5[12:1],,,,,,2-4[12:1],,,5-7[12:1]*v2[8:1],,,,,,
{12}8,,1h[24:1],5,,6,3,,4,7,5,6,2,4,3,8,6,7,
{12}1b-4[8:1],,,5v2[8:1],,,6,,7,8-4[8:1],,,4<7[8:1],,,3,,,
{12}2q6[8:1],,,8-5[8:1],,,5,,4,3v6[8:1],,,5<8[8:1],,,1,,,
{12}2h[12:6],,,6,,,8h[12:3],,4qq4[12:5],4q4[12:4],,,,,,,,,
{12}5h[12:3],,,3h[12:3],,,7,,1,1/8,,6,6/5,,3,3/5,,,
{12}4,,7,71,1,8,82,2,7,73,3,6,64,4,5,4/5,,,
{12}5,,3,34,4,2,25,5,4,47,7,3,36,6,1,8<1[12:15]/1>8[12:15],,,
{4}1b/8b,,,,,,
{6}5h[12:1]/6h[12:1],3h[12:1]/5h[12:1],4h[12:1]/7h[12:1],2h[12:1]/6h[12:1],1h[12:1]/8h[12:1],,
{4},,7h[4:2],,,3h[4:2],,{12},,{24}6,4,
{12}5,,{24}3,4,{12}2,5,1,7h[12:2],,,
{12}1q5[8:1],,6v1[8:1],1,,6,4,,{24}3/8q4[8:1],27,
{12}16,,8-6[12:1],5v2[8:1],,8,5,,,
{12}7-4[8:1],,3v8[8:1],7,,3,5,,{24}6/1V75[12:2],72,
{12}83,,1-3[12:1],4-8[8:1],,1,4,,,
{12}3,{24}7,6,{12}5,2,4,3,8,6,7-3[8:1],1-7[12:1],,7-5[12:1],1v4[8:1],,7,1,,,
{12}5h[12:3],,,3h[12:3],,,7h[12:3],,,1b,,28,,37,,6,4,5,
{12}2>4[12:1],,6v1[8:1],2,,6,5,,{24}48,37,
{12}2v5[8:1]/6,,5>2[8:1],2,,7,8-5[12:1],,,
{12}8-3[12:1],1,6,8-5[12:1],7,2,8-4[12:1],1,6,
{12}8<5[12:1],7,3,8V24[24:3],2,4,8-6[12:1],,,
{12}8/5-1[12:1],4,3,5/2-4[12:1],,,8/2,7,6,
{12}5-1[12:1],4,3,2V48[12:2],,8-2[12:1],2q5[12:5],,,
{12}6h[12:17],,,,,,,,{36}7,8,1,
{12}2h[12:7],,,,,,,,,
{24}3b,,5,4,5,,3,,4,,2,,7,,8,,6,,1,,5,,3,,8b,,4,,6,,1,,7,,3,,
{24}34,,3,4,3,,35,,3,5,3,,36,,3,6,3,,37,,3,7,3,,{4}2h[12:4]/8h[12:5],,
{12}1h[12:3],8,7,6h[12:3],5,4,3h[12:3],2,1,
{12}8b,,47,,35,,26,,,
{12}7b-3[32:1],,1b-5[32:1]/7,,8b/1,,7,6,5,
{12}5/4,5/3,5/2,,1/8,1/7,1/6,,,,,,
{1},
E
