&title=萌豚❤功夫❤大乱舞
&artist=李 龟琍椏 feat.娜娜苤來
&first=0.05
&des=桐蔭 丼東
&lv_5=13+
&inote_5=(144)
{4},,,
{32},E7,E6,E5,E4,E3,E2,E1,
{16}E8/3xh[16:1],,,1x/6x,,3x/8x,,2x/6x,,7x/3x,,1x/5x,,7x/4x,,2x/5x,,,
{16}6xh[16:3],,,4xh[16:5],,,{24}2x-6[8:1],1x,8x,7x,6x,5x,{4}4x/2x`Cf,
{16}8h[8:1]/7h[4:1],,,,8,1,2,3,6,6h[16:6],,E7,,E1,,E3,
{32},,7x,5x,7x,5x,7x,5x,{16}7x,,4,7,5,6,,74,,16,,38,
{16}12,,2,1,3,8,4,7,5,5h[16:6],,E3,,E1,,E7,
{32},,3x,2x,1x,8x,7x,6x,{16}5x,,6,5,7,4,6,5,8,3,1,2,
{16}3h[8:1]/8h[4:1],,,,2,3,4,5,7,7h[16:6],,E7,,E1,,E3,
{32},,6x,4x,6x,4x,6x,4x,{16}6x,,2,5,3,4,,34,,56,,87,
{16}61,,7,8,6,1,,25,{24},,3x,4x,3x,4x>7[16:6],
{16}2x,5x,3x,4x,,,,,,,,,{4}1qq2[6:1]/5qq6[6:1],,
{4}3xh[4:4],B4,B5,B6,7xh[4:3],B8,B1,{8}2-4[8:1],2,5b<8[8:1],,,,
4xz8b[4:2],,7x-3[4:1],,,,,,
{8}5,6,7h[4:1],,
{16}1,2,3h[4:1],,8,,5h[8:1],,8x,7x,6x-8[8:1],5x,4x-2[8:1],,6xb,,4xb,,E8,E7,E6,E5,
E4/2x,,2,4,3,4,1,4,3,4,
2,2h[16:2],,4h[8:1],,3,4,,1,8,1>4[8:1],8,1v4[8:1],,1bx,,1bx,,E6,E7,E8,E1,
E2/3x,,3,1,2,1,4,1,2,1,
{8}3-5[12:1],3,7-3[8:1],7,{16}3,2,1-5<7b[16:3]*-5>3b[16:3],8,,,1,,E4/E7/A3/A7/D8/D3,,
,,28,,28,,
8,7,6,5,2,3,4,5,
7,7h[16:2],,5h[8:1],,6,5,,8,1,8v3[8:1],1,7<4[8:1],,8bx,,7bx,,
{32}B2/A2,B1,B8,B7,B6,B5,B4,B3,B2,B1,
{16}B8/Cf,,,E5/E4/E6/B4/B5,,17,17,,,
{8}2qq1-5>3[4:2]/6,2/6h[8:5],,,,,,{16},7x>2[8:1],{8},,5-1[8:1],,7,8bx,7bx,2,
{8}7-4-8-6-2[4:2]/3,7/3h[8:5],,,,,,{16},4x>1[8:1],{8},,5-1[8:1],,1,2bx,3bx,
{16}2x-8-4-6[8:5],1x-3-7-5b[16:9],,,,,,,,,,,,,,,
7xz3>1[8:5],8xs4<6b[16:9],,,,,,,,,,,,,,,,
7xh[16:3],
{8},,2x/4xh[8:1],E2,3x/5xh[8:1],E3,4x/6xh[8:1],E4,
{16}7x/5x,,8x/6x,8x/6x,,1x/3x,,4xs8[16:3]/5xz1b[16:3],,,,,,,,,
{16}37,,26,,3/7h[16:7],,,,1b,,,5b,,,5b>4-7<6-1b[8:4]/1b<8-3>2-5b[8:4],,
{4},,,{8}8b,
{32}4bxh[16:3]/8x,7x,6x,5x,
,3x,2x,,
,,,,6bxh[16:3]/2x,1x,
8x,7x,,5x,
4x,,
{16}2-5[8:1],2,,2h[8:1],,,,
1,4,3,4,1,4,3,4,1,5x,6x,7x,8x,1bx/2bx,,
,8,3,4,2,6,5,7,3,4,
2,2,7,7,5,,,,
34,2h[8:1],,8h[8:1],,6h[8:1],,4,,4,,4,
53,,
{32}6bxh[16:3]/4x,3x,2x,1x,
8x,7x,,,
,,,,4bxh[16:3]/8x,7x,
6x,5x,,3x,
2x,,
{16}8-4[8:1],8,,8h[8:1],,,,
8,5,6,5,8,5,6,5,8,4x,3x,2x,1x,8bx/7bx,,
,1h[16:3],,,7-3[8:1],,62,,17,,2,1,,48,,,,
6b/2bh[16:3],,,
{32}6xb,3x,4x,5x,6xb/2xbh[8:1],,,,
,3x,4x,5x,6bx/2bxh[8:1],,,,{8}7,1b,,
{16}4>6[4:1]/6,,,6,,,5,,4h[4:1],,,,2,,
3,4,1,4,3,8,3,4,7,4,
A1,A2,A3,A4,,E7/B6/B7,,,
{8}2>5[8:1]/8,1,2/8-4[8:1],7,1-3[8:1]/8,2,1/7<4[8:1],8,1-5[8:1]/7,3,1/8-4[8:1],6,8<5[8:1]*>3[8:1],,8,,
{16}5<3[4:1]/3,,,3,,,4,,5h[4:1],,,,7,,
6,5,8,3,4,1,6,5,8,
2,4,2,4,1-4[8:1],,,,1x,
8x-5[16:1],,,8x,,2x-6[12:1],,7x-3[12:1],,2x-5[12:1],,7x>2[12:1],,2x,,7x,,,
{16}3xh[16:3],,,5xh[16:5],,,{24}7x-3[8:1],8x,1x,2x,3x,4x,{4}5x/7x`Cf,
{4}5xv3>8[4:1],,,4x-2b[8:1]*V28[4:1]*V68[4:1],4x,,{16}2x,2x,2x,,,,,,
{4}8xpp7pp6pp5[4:5],,,,,,
{16}Chf[16:3],,,E3/E7,,,,,
2pp1[4:1],2h[16:2],,E8,,E7,,E6,,,
4h[8:1],,1h[8:1],,5h[8:1],,2,,3,4,3p6[8:1],,25,,36,,,,
8,,1,,7qq8[4:1],7h[16:2],,E2,,E3,,E4,,,
5h[8:1],,8h[8:1],,4h[8:1],,7,,6,5,6q3[8:1],,74,,63,,,,
1,,8,,2pp2[4:1],2h[16:2],,E8,,E7,,E6,,,
4h[8:1],,1h[8:1],,5h[8:1],,3,4,1,8,5,6,1,8,1,,,,
7,1,,1,8,8,7,7,6,6,5h[8:1],,B4/B3,,,,
3,4,
1h[8:2],7h[16:5],,,,,5h[8:1],,6h[16:1],5h[16:2],,4h[8:1],,3h[8:1],,
4h[16:1],3h[8:1],,
{8}6x```5x```4x,2x```3x```4x,8b,
{16},6,57,,3,24,,,
8qq5[8:3]/4qq1[8:3],,,,,,,,,,,,,6,2,,
1p7[8:4]/3h[8:7],,,,,,,,,,,,,,
,7,,4h[16:1]/7h[16:1],,,,2h[16:1]/5h[16:1],,,
{32}2x,3x,4x,5x,6x,7x,8x,1x,2x/Chf[8:1],,,,
{4}D1/E1/B1/B8/A8/A1,
{16}3,4,1,6,5,8,3,4,1,1,7,7,5,,,,
34,2h[8:1],,8h[8:1],,6h[8:1],,4,,4,,4,
53,,
{32}6bxh[16:3]/4x,3x,2x,1x,
8x,7x,,5x,
4x,3x,2x,1x,4bxh[16:3]/8x,7x,
6x,5x,,3x,
2x,,
{16}5-1[8:1],5,,5h[8:1],,,,
2,6,4,6,2,6,4,6,2,6x,7x,8x,1x,2bx/3bx,,
,3h[16:3],,,7-3[8:1],,64,,37,,2,1,,48,,,,
6b/2bh[16:3],,,
{32}6xb,3x/7x,4x/8x,5x/1x,6xb/2xbh[8:1],,,,
,3x,4x,5x,6bx/2bxh[8:1],,,,{8}7,1b,,
{16}4>6[4:1]/6,,,6,,,5,,4h[4:1],,,,2,,
2,4,1,4,2,8,2,4,7,4,
A1,A2,A3,A4,,E7/B6/B7,,,
{8}2>5[8:1]/8,3,2/8-4[8:1],6,1-3[8:1]/8,2,1/7<4[8:1],6,1-5[8:1]/7,3,1/8-4[8:1],6,8<5b[8:1]*>3b[8:1],,8,,
{16}5<3[4:1]/3,,,3,,,4,,5h[4:1],,,,7,,
7,5,8,2,4,1,7,5,8,
3,7h[4:1],,,,{16}1xw5b[8:1],,,,1b/Cf,
{16},,,8,7,6,5,2,2h[16:6],,E3/B2,,E1/B8,,E7/B6,
{32},,2x,4x,2x,4x,2x,4x,{16}2x,,5,2,4,3,,25,,83,,61,
{16}87,,7,8,6,1,5,2,4,4h[16:6],,E7/B7,,E1/B1,,E3/B3,
{32},,6x,7x,8x,1x,2x,3x,{16}4x,,3,4,2,5,3,4,1,6,8,7,
{16}6h[8:1]/1h[4:1],,,,7,6,5,4,2,2h[16:6],,E3/B2,,E1/B8,,E7/B6,
{32},,3x,5x,3x,5x,3x,5x,{16}3x,,7,4,6,5,,65,,43,,12,
{16}38,,2,1,3,8,,74,{24},,6x,5x,6x,5x<2[16:6],
{16}7x,4x,6x,5x,,,,,,,,,{4}8pp7[6:1]/4pp3[6:1],,
{16}6x,,6,,6,5,,7,8,,6,5,,7,3,7,3x,,3,,3,4,,2,1,,3,4,,1,7,1,
6b,2x``3x``4x,,1x``2x``3x,,2x``3x``4x,,1x``2x``3x,,2x``3x``4x,,1x``2x``3x,,2x``3x``4x,,1bh[16:2],,
7x``6x``5x,,8x``7x``6x,,7x``6x``5x,,8x``7x``6x,,7x``6x``5x,,8x``7x``6x,,7x``6x``5x,,8bh[16:2],,
3x``4x``5x,,3x``4x``5x,,3x``4x``5x,,3x``4x``5x,,3x``4x``5x,,3x``4x``5x,,3x``4x``5x,,1bh[16:2],,,
7-4[16:1]/3,,,7/3-7[16:1],,,3qq4b[4:9]/5-1[8:1],,,,
3b/5bpp4b[4:8]/Cf,
