&title=魔王(World Ender)
&artist=TJ.hangneil vs sasakure.UK
&first=0
&des=baiqieji
&lv_5=14+
&inote_5=(270)
{4}
,,,,,,,,,,,,
5>1[4:6],,,,,,1<5[4:6],,,,,,5pp1[4:6]*qq1[4:6],,,,,,,,,,,,
4<8[4:6],,,,,,8>4[4:6],,,6,,,4qq8[4:6]*pp8[4:6],,,,,,,,,2,3,4,
{8}
35,,2,4,1,5,8,,17,,
64,,7,5,8,4,1,,82,,
35,,2,4,1,5,8,,17,,
6h[4:1],,5h[4:1],,4h[4:1],,3h[4:1],,2,,
14,,2,6,1,5,8,4,7,,
85,,7,3,8,4,1,5,2,,
14,,2,6,1,5,8,4,7,,
(250)
5,,
(220)
4,,
(160)
3,,
(120)
2,,
(91)
1-5[8:3],,,,,
(280)
{8}
8bw4[8:42],,,,,,,,
,,,,,,,,
,,,,,,,,
,,,,,,,,
,,,,,,,,
,,,,,,,,
{16}
6,,3,,3,,6,,4,5,4,5,3,,4,,5,,6,,4,,3,,
6,,3,,4,,6,,4,5,4,5,3,,6,,4,,5,,3,,6,,
3,,6,,4,,3,,5,4,5,4,6,,5,,4,,3,,5,,6,,
3,,5,,4,,6,,5,4,5,4,6,,3,,4,,4,,5,,5,,
5bw1[4:6],,,,,,,,,,,,,,,,,,,,,,,,,,,,,,,,
{8}
2/8h[4:1],,2,7,2,,3/6h[4:1],,3qq8[4:3],5,3,,
6,,5,,4,,14,,2/5h[4:1],,4,,
7/1h[4:1],,7,2,7,,6/3h[4:1],,6pp1[4:3],4,6,,
3,,4,,5,,85,,7/4h[4:1],,5,,
3/5h[4:1],,4,6,3,,2/7h[4:1],,2pp5[4:3],8,2,,
7,,8,,1,,41,,3/8h[4:1],,1,,
2/8h[4:1],,1,7,2,,3/6h[4:1],,3qq8[4:3],5,3,,
6,,5,,4,,1,5,8,4,1,5,
2h[4:1]/4,,5,3,24,,6h[4:1]/4,,5qq2[4:3],7,7,,
6,,7,,8,,1,1,2-4[8:1],,2,,
7h[4:1]/5,,4,6,57,,3h[4:1]/5,,4pp7[4:3],2,2,,
3,,2,,1,,8,8,7,,46,,
6h[4:1]/8,,1,7,68,,2h[4:1]/8,,1qq6[4:3],3,3,,
2,,3,,4,,5,5,6-8[8:1],,6,,
3h[4:1]/1,,8,2,8,,7h[4:1]/1,,8>4[4:1],6,6,,
5,5,5,5,5,5,2,2,2,2,2,2,
{4}
4<8[4:3],4,3,2,1,
1>5[4:3],1,8,7,6,
5>1[4:3],5,6,7,8,
8<4[4:3],8,4,3,2,
1-5[4:1],5qq2[4:3],6,7,8,
1>4[4:2],8,7,6,3,
8-4[4:1],4pp7[4:3],3,2,1,
8<5[4:2],1,2,3,4,
(190)
4bp2[4:12]/7bp6[4:12],,,,,,
,,,,,,,,
1h[4:1],7h[4:1],2h[4:1],6h[4:1],3h[4:1],5h[4:1],4h[4:1],
6h[4:1],5h[4:1],7h[4:1],6h[4:1],5h[4:1],8h[4:1],4h[4:1],
{16}
1b,,2/4p8[8:1],,5,,46,,7,6,5<8[8:1],,1,2,3,,
2-5[8:1],,5>2[8:1],,2V84[4:1],,6,,7,6,5,,6,,37,,
8,,7/5q1[8:1],,4,,53,,2,3,4-8[8:1],,8,7,6,,6,,17,,2,3,4,,
84,,1<6[8:1],,2,,13,,4,3,2q6[8:1],,6,7,8,,
7-4[8:1],,4<7[8:1],,7V15[4:1],,2,,1,2,3,,3,,47,,
3,5,3,6,4,6,2,5,2,7,4,7,3,5,2,6,4,7,3,4,2,6,5,,
7b/4b,,7,5,7,,46,,6,3,6,,53,,5,2,5,,43,,4,2,4,,
2b/5b,,2,4,2,,53,,3,6,3,,46,,4,7,4,,56,,5,7,5,,
6b/8b,,6,8,6,,17,,7,2,7,,82,,8,3,8,,12,,1,3,1,,
2,4,3,7,5,6,1,4,2,8,5,7,3,5,1,6,4,8,3,4,1,6,5,,
(200)
{32}
4b/7b,,,7,,,4,,,4,,,5,,,5,,,2,,,2,,,
14,,,1,,,5,,,5,,,3,,,3,,,7,,,7,,,
8b/5b,,,8,,,4,,,4,,,36,,,6,,,2,,,2,,,
15,,,5,,,3,,,3,,,26,,,6,,,1,,,1,,,
27,,,7,,,4,,,4,,,38,,,8,,,1,,,1,,,
8b/2b,,,8,,,74,,,4,,,65,,,6,,,73,,,3,,,
{16}
3,5,1,6,4,8,3,4,1,6,5,8,3,6,2,8,
1,1,1,1,1,1,1,1,1,1,1,1,1,1,1,1,1,1,1,1,1,1,1,1,1,1,1,1,
(280)
1b-5[8:13],,,,,,,,,,,,,,,,,,,,,,,,,,,,,,,,
{4}
1pp5[4:8],,,,,,,,5pp1[4:8],,,,,,,,1q4[4:8]*p6[4:8],,,,,,,,,,,,56,,4,,
3h[4:7]/5,5,6,6,7,7,8,8,7h[4:3]/1,2,3,4,4h[4:3]/5,6,7,8,
6h[4:3]/2,3,4,5,4h[4:3]/6,7,8,1,
3h[4:3]/8,7,6,5,5h[4:3]/3,2,1,8,
{8}
2-6[8:1],1,2,7,5-2[8:1],,57,,7V53[4:1],7,3v6[4:1],3,2,2,2,2,
7,8,5,4,1,1,4,4,6v1[4:1],6,1V74[4:1],1,2,2,2,2,
3>8[8:1],4,3,5,5<8[8:1],,15,,2-6[4:1],2,6V41[4:1],6,7,7,7,7,
2b,8,3,4b/5b,6,2,7,1V35[4:1],1,5v2[4:1],5,6,6,6,,
7-3[8:1],8,7,2,4-7[8:1],,41,,2-6[4:1],2,6V41[4:1],6,7,7,7,7,
2,1,4,5,8,8,5,5,3v8[4:1],3,8V24[4:1],8,7,7,7,7,
6<1[8:1],5,6,4,4>1[8:1],,84,,7-3[4:1],7,3V58[4:1],3,2,2,2,2,
7,7,3,45,6,3,2,8V64[4:1],8,4v7[4:1],4,3,3,3,3,6,6,
3h[4:4]/6h[4:1],,,,,,,,,,
2h[4:1]/7h[4:4],,,,,,,,,,
3h[4:4]/5h[4:1],,,,,,,,,,
4h[4:1]/6h[4:4],,,,,,,,,,
14,,2,6,1,5,8,4,7,,
85,,7,3,8,4,1,5,2,,
14,,2,6,1,5,8,4,7,,
6h[16:2],,7h[16:2]/5h[16:2],,4h[16:2]/8h[16:2],,1h[16:2]/3h[16:2],,2h[16:2],,
{4}
3bp2[4:21]/7bp6[4:21],,,,,,,,,,,,,,,,,,,,,,,,
{16}
1b-5[8:1]/8b,,,,6-8[8:1]/1,,,,4-2[8:1]/6,,,,4,,,,6h[4:1],,,,8,1,2,3,
6,,5,,47,,3,,5v6[16:3],,,,4v3[16:3],,4,,,,7,,7,,,,
15,,3,4,3,,5,,6,5,6,,4,,4,,7,,7,,17,,1,,
1>4[8:1],,,,1<6[8:1],,,,1-5[8:1],,,,1,,,,8-4[8:1],,,,4pp7[4:2],,,,
3,,3,,3,,,,1v4[8:1],,,,6,,,,57,,6,,5,,46,,
3v5[4:1],,,,6,,,,7,,7,,7,,4,,63,,2,4,2,,5,,
6,1,6,,2,,8,,1V38[4:1],,1,,8v5[4:1],,8,,7,,7,,7,,7,,
8v3[4:1],,8,,3V57[4:1],,3,,2,,2,,2,,2,,7,4,7,,3,,6,,
4v1[4:1],,,,1V35[4:1],,,,7,,7,,7,,7,,74,,4,,4,,4,,
64,,6,,6,,6,,3,5,3,,6,,7,5,7,,3,,28,,2,,
27,,7,,71,,7,,47,,4,,46,,6,,26,,2,,25,,5,,
35,,3,,63,,6,,45,,45,,36,,36,,27,,27,,18,,18,,E
