&title=聊天框 &artist=小Z &first=0.05999999 &des=别聊天了 &des_5= &des_7= &lv_5=1 &lv_7=微信 &inote_5=(130) E &inote_7=(130){8},{16}8h[16:1],7h[16:1],6h[16:1],5h[16:1],{8}4s8[4:1],{32}6,5,{16}6,{8}4,{32},1,,,1,,,2, ,,{16}2,{32},1,,,4,3,4,3,4,3>6[8:1],,,,,,,,Cf,,,,,,,,,,,,,,,{8}4, 4,5,5,6,6,7<4[8:1], 8,7/4<7[8:1],2,4/7<4[8:1],8,7/4,1x,{48}8x-4[8:1],7x/1x,6x/2x,5x/3x,{24}4x, ,,,{8}8/3<6[8:1],2,3/8-4[8:1],7,8/3>8[8:1],2,4, {48},,,,,,1x-5[8:1],2x/8x,3x/7x,4x/6x,5x,4x,3x,2x,{24}1x,,{8}6x,{2}7xs3[12:1], E