&title=SEVENTH HAVEN
&artist=セブンスシスターズ
&des=Reishi
&wholebpm=132
&first=0
&first_1=0
&first_2=0
&first_3=0
&first_4=0
&first_5=0.68
&amsg_first=
&tap_ofs=
&hold_ofs=
&slide_ofs=
&break_ofs=
&lv_1=1
&lv_2=2
&lv_3=5
&lv_4=9
&lv_5=11
&seek=
&wait=
&inote_1=
&inote_2=
&inote_3=
&inote_4=
&inote_5=
(132)
{8}4b/5b,,3,4,6,5,1,3,
{8}8,6,45,45,{6}13,86,72,
{8},,2>4[16:1],2,6<8[16:1],6,1v3[16:1],1,
{8}5v7[16:1],5,3,3,{6}76,23,18,
{8}5,5,4,4,{16}45,,3,4,,6,5,,
{8}65,54,43,36,{16}45,,4,3,,5,6,,
{16}3,3,5,5,4,4,6,6,2,2,7,7,1,1,8,8,
{16}2,4,3,,7,5,6,,4,5,4,,8h[8:1],,4,,
{8}3,,1,7,{16}3,5,,4,{8},5,
{8}6,,8,2,{16}6,4,,5,{8},1s5[16:1],
{8}5,,,8z4[16:1],4,,,2-5[16:1],
{8}5-2[16:1],{16}2,5,,,{8}34,25,,,4,
{8}3,,1,7,{16}3,5,,4,{8},5,
{8}6,,8,2,{16}6,4,5,3,{8},8z4[16:1],
{8}4,,,1s5[16:1],5,,,7-4[16:1],
{8}4-7[16:1],{16}7,4,,,{8}56,74,,18,,
{8}36,,2-5[8:1]/7,1,2/7-4[8:1],6,7/2>5[8:1],1,
{8}2/7<4[8:1],6,72,,{6}1b/3b,8b/6b,7b/2b,
{8}36,,{16}4,5,4,,6,3,6,,2,7,2,,
{16}8,1,8,,27,63,45,,4h[8:1]/5h[8:1],,,,4b/5b,,,,
{8}36,,7-4[8:1]/2,8,7/2-5[8:1],3,2/7<4[8:1],8,
{8}7/2>5[8:1],3,72,,{6}7b/2b,1b/3b,8b/6b,
{8}36,,{16}2,5,2,,7,4,7,,3,5,3,,
{16}6,4,6,,45,63,45,,{32}1,2,3,4,5,6,7,8h[8:1]/4h[8:1],{8},,
{8}3h[3:2],,,5,5h[3:2],,,8,
{8}8h[3:2],,,4,4h[2:1],,,1>5[2:1],
{8}1,,,5<1[8:3],5,,1p5[2:1],1,
{6}2,3,4h[4:1],,,,
{8}6h[3:2],,,4,4h[3:2],,,1,
{8}1h[3:2],,,5,5h[2:1],,,8<4[2:1],
{8}8,,,4>8[8:3],4,,8q4[2:1],8,
{6}7,6,5h[4:1],,,,
{4}1>4[16:1],1<6[16:1],1-4[16:1],1-6[16:1],
{4}5>2[16:1],5<8[16:1],5w1[16:1],5,
{4}1h[8:1]/5h[8:1],3h[8:1]/7h[8:1],8h[8:1]/4h[8:1],2h[8:1]/6h[8:1],
{4}1v3[16:1]/5v7[16:1],15,4v2[16:1]/8v6[16:1],48,
{8}56,56,34,34,{16}72,,1,1,,8,8,,
{8}75,24,86,13,{16}36,,34,25,,56,74,,
{16}5,5,3,3,6,6,4,4,7,7,2,2,8,8,1,1,
{32}8,7,6,5,4,3,2,1,8,7,6,5,4,3,2,8h[8:1]/1h[8:1],{8},,1b/8b,25,
{8}34,,3,5,{16}75,75,,64,{8},74,
{8}56,,6,4,{16}24,24,,35,{8},1>3[16:1]/8<6[16:1],
{8}18,,,1<6[16:1]/8>3[16:1],18,,,78,
{8}12,{16}45,45,,,{8}26,37,,,18,
{8}36,,28,46,{16}6,6,,3,{8},18,
{8}36,,71,53,{16}3,3,6,6,{8},4<7[16:1]/5>2[16:1],
{8}45,,,4-8[16:1]/5-1[16:1],45,,,7V14[8:1],
{8}26,{16}74,4,,,{8}83,16,,27,,
{8}36,,1-3[8:1]/7,8,1/7-5[8:1],8,7/1>3[8:1],8,
{8}1/7<5[8:1],8,71,,{6}1b/3b,8b/6b,7b/2b,
{8}36,,{16}4,5,4,,6,3,6,,2,7,2,,
{16}8,1,8,,27,63,45,,4h[8:1]/5h[8:1],,,,4b/5b,,,,
{8}36,,8-6[8:1]/2,1,8/2-4[8:1],1,2/8<6[8:1],1,
{8}8/2>4[8:1],1,82,,{6}7b/2b,1b/3b,8b/6b,
{8}36,,{16}2,5,2,,7,4,7,,3,5,3,,
{16}6,4,6,,45,63,45,,{32}8,1,2,3,4,5,6,7,8,1,2,3,4,5,6,7,8h[1:4]/4h[1:4],
{1},,,,,,
E
&amsg_time=
&amsg_content=
