&title=桜樹街道
&artist=kozato snow
&first=0.01
&des=磷化锆
&des_6=磷化锆
&lv_5=14
&lv_6=14
&inote_5=(135){4},,,,4h[2:1],
5,6h[2:1],3,
2h[2:1],7,{8}8h[2:1],1,{4}1,
1-5[16:3],2,3-7[16:3],4,
5-1[16:3],6-2[16:3],{8}7-3[16:3],8,{4}7/8,
1,{8}6,4,{4}7h[4:1],8,
7,{8}4,5,3,2,{4}1/2h[4:1],
{8}4,3h[4:1],4,5,4,3h[8:1],5,6,
1,8,2,7,3,{16}8b,8b,{8}8bw4[8:1],1b/7b,
{4}8b-6[8:1],8-4[8:1],8-3[8:1],8w4[8:1],
8,{8}1-5[8:1],6,1,7,{16}4,3,2,1,
{4}8h[4:1],1h[4:1],8h[4:1],2h[4:1],
7h[4:1],6h[4:1],5h[4:1],4h[4:1],
1h[4:1],5,{8}5/6h[8:3],4,3,2,
{4}1/2h[4:1],{8}8-4[8:1],3,8,5,{16}3,4,2,5,
{8}1h,{16}6,5,,7,8,7,{8}6/1,2/5,3/4,5/6,
7h,{16}3,4,,2,1,2,{8}3/8,7/4,6/5,3/4,
2h,{16}4,3,,6,5,6,{8}7/4,6/5,3/4,2/5,
{4}1h[4:3],4,{8}4,4,{4}4,
{8}5/1b-5[1:10],{16},,,,,,,,3,3,{8}8,2,
{4}7-3[8:1],7,{8}7-3[8:1],3,{4}7,
7-3[8:1],7,{8}7-3[8:1],{16}3,3,{4}7,
8-4[8:1],8,{8}8-4[8:1],4,{4}8,
8-4[8:1],8,{8}8-4[8:1],{16}4,4,{4}8,
2-6[8:1],2,{8}2-6[8:1],6,{4}2,
2-6[8:1],2,{8}2-6[8:1],6,{4}2,
1-4[8:1],1,{8}7-3[8:1],{16}3,3,{4}7,
8h[8:1],{8}7,2,6,{16}3,7,{8}1-5[8:1],8b,
{4}1b-3[8:1],1,{8}8-4[8:1],8,{4}8,
8-4[8:1],{8}8,8,8-4[8:1],{16}4-8[8:1],4,{4}8,
1b-5[8:1],1/5,{8}1-5[8:1],5/1,{4}5,
1-5[8:1],{8}1,8,8-4[8:1],{16}4-8[8:1],8,{4}8/4,
2-4[8:1],5/2,{8}7-5[8:1]/2-8[8:1],8,{4}7h,
4/7,{8}2-5[8:1],1,2/7-2[8:1],6,4/7-5[8:1],3,
{4}7/2h[8:1],{8}1h[8:1],5,6h[8:1],{16}3,7,{8}4,8,
5-1[8:1],5,4,4,3-7[8:1],{16}5,5,{8}3,5,
{4}1b-5[4:3],{8}8,2,7,3,6,4,
{16},,5,6,{8}7h[8:1],4,3h[8:1],5,6h[8:1],8,
{4}3h[4:1],{8}4,2/5h[4:1],,8-4[8:3],,3h[2:1],
{16},,,,,,4,5,{8}6h[8:3],1,{4}2h[8:1],
{8}4,7h[8:1],4,4h[4:1]/8h[4:1],{16},,,,,,4,3,
{8}2/5h[4:1],2,3,4/6h[4:1],{16},,1,7,2,6,3,5,
{8}4h[8:1],{16}8,8,,3,7,2,{8}6h[8:1],4,{4}5/3h[8:1],
4/6h[1:1],{16}4h[16:1],,,5h[16:1],,,,7h[16:1],,,{8}8,
{4}2b,{16},,,,,,,,4,5,4,6,
{4}2b,8h,{8}6,4,{4}8h,
4h[4:1],{8}8h,4,6,{16}4,4,{8}8h,4,
{4}4h[4:1],7h,{8}5,5,{4}1h,
5h[4:1],{8}1h,5,2,{16}5,5,{8}1h,5,
{4}4h[4:1],8h,{8}6,4,{4}8h,
4h[4:1],{8}8h,4,6,4,8h,3h,
{4}5h[4:1],{8}1h,5,2,{16}7,7,{8}3h,8,
7h[8:1],6h[8:1],5h,4,3h[8:1],{16}5,6,{8}7h/4b-7[8:1],2b,
{4}4b,8/4h[48:1],{8}2,8,{4}8/4h[48:1],
8h[4:1],{8}4h[48:1],8,2,{16}8,8,{8}4h[48:1],8,
{4}8h[4:1],3h[48:1],{8}1,1,{4}1/5h[48:1],
1h[4:1],{8}5h[48:1],1,6,{16}1,1,{8}5h[48:1],2,
{4}6h[4:1],4h[48:1],{8}6,2,{4}6/4h[48:1],
8h[4:1],{8}4h[48:1],8,2,8,4h[48:1],7h,
{4}1h[4:1],{8}5h[48:1],1,6,{16}3,3,{8}7h[48:1],4,
6/3h[8:1],5,7/4h[48:1],{16}3b,3b,{8}7h[8:1],{16}1b,1b,5b,6,7/3b,8,
{4}5/1w5[8:1],1b-7[8:1],{8}3/1-4[8:1],2,{4}6/1-5[8:1],
3/1-4[8:1],{8}7/1-5[8:1],8,4/1-4[8:1],{16}3,2,{8}1/8-5[8:1],7,
{4}1/8-3[8:1],4/8-4[8:1],{8}6/8-5[8:1],7,{4}3/8-4[8:1],
6/8-5[8:1],{8}2/8-4[8:1],1,5/8-5[8:1],{16}6,7,{8}1/8-4[8:1],2,
{4}8/1-4[8:1],1/2-7[8:1],{8}4/2-5[8:1],5,{4}2/6-1[8:1],
6/2q6[8:1],{8}2/7-3[8:1],8,7/2-5[8:1],1,2b,4b,
{4}6w2[8:1],6,{8}8-5[8:1],{16}5v7[8:1],4,{4}8/3h[8:1],
{8}1-4[8:1],1-6[8:1],{4}1-5[8:1],{16},,6,7,{8}8/4,2/6,
{4}4/8-6[8:1],8/1-5[8:1],{8}1/2-4[8:1],3,{4}2/6<1[8:1],
6,8h[8:1]/4-8[8:1],{8}6-1[8:1]/4V63[4:1],{16}6,5,{4}4,
1-3[8:1],1/8-4[8:1],{8}8/7-5[8:1],6,{4}7/3>8[8:1],
3,{8}1/5-1[8:1],6,3-8[8:1]/5V36[4:1],{16}3,4,{4}5,
7-3[8:1],3/7-5[8:1],{8}3-5[8:1]/7-1[8:1],2,{4}7/3V51[4:1],
3,{8}8V62[4:1],7,8/2-5[8:1],5b-3[8:1],3bw7[8:1],1b,
,,{4}5w1[8:1],5b,7w3[8:1],
7b-5[8:1],{8}7/1-7[8:1],2,1/3-8[8:1],4-7[8:1],3,4,
1b,{16}8,5,7,7,4,6,3,5,4,5,8,5,4,5,
{8}2h[8:1],6,{16}7,4,7,4,6,4,7,4,1,4,6,4,
{8}3h[8:1],5,{16}6,6,3,5,2,2,4,2,6,2,4,2,
{8}6h[8:1],5,{16}7,5,6,4,5,5,3,4,2,2,4,3,
{8}8b,{16}2,4,1,1,4,2,5,3,4,3,8,3,4,3,
{8}8h[8:1],4,{16}3,6,3,6,4,6,3,6,1,6,4,6,
{8}2h[8:1],4,{16}5,5,2,4,1,1,3,1,5,1,3,1,
{8}7h[8:1],6,{16}8,6,7,5,6,6,4,5,3,3,5,4,
{8}5h[8:1],{16}4,6,{8}3h[8:1],{16}4,2,{8}5h[8:1],{16}2,2,{8}7h[8:1],{16}2,2,
{8}5`1h[8:1],{16}6,2,{8}8h[8:1],{16}4,7,{8}3h[8:1],{16}5,5,{8}6h[8:1],{16}3,3,
{8}2h[8:1],{16}5,3,{8}6h[8:1],{16}5,7,{8}4h[8:1],{16}7,7,{8}2h[8:1],{16}6,6,
{8}4`8h[8:1],{16}3,7,{8}1h[8:1],{16}5,2,{8}6h[8:1],{16}4,4,{8}7h[16:1],{16}5,5,
4h[8:1],6,6,3,{8}6h[8:1],{16}5,7,4h[8:1],7,6,5,2h[8:1],5,6,7,
8h[8:1],4,4,7,{8}1h[8:1],{16}5,2,6h[8:1],4,3,2,5h[8:1],1,2,3,
{8}7h[8:1],{16}4,4`6,{8}3h[8:1],{16}4,4`2,{8}5h[8:1],{16}2,2`6,{8}7h[8:1],{16}3,6`2,
{8}1h[8:1]`5,{16}6,7`2,{8}3`8h[8:1],{16}4,7`3,{8}2h[8:1]`6,{16}4-8[8:1],4w8[16:33],{8}4b,4b,
E
&inote_6=(135){4},,,,{2}6-4[8:1],
8-6[8:1],
2-8[8:1],4-2[8:1],
{4}6h[4:1],8h[4:1],2h[4:1],4h[4:1],
7h[4:1],6h[4:1],{8}5h[4:1],4,{4}4,
2-4[8:1],{8}2,1,{4}8-2[8:1],8,
6-8[8:1],{8}6,5,4-6[8:1],3,{4}4/2,
{8}1,8>3[8:1],,6,7,8<5[8:1],,4,
3,3h[8:1],4,5,6h[16:3],{16}3,3,{8}7,1b,
{4}7h[4:1],5-2[8:1],5,4h[4:1],
1h[4:1],{8}5,6,{4}7<4[8:1],7,
1>4[4:1],4<7[4:1],7>2[4:1],2-5[4:1],
5-1[4:1],1-6[4:1],6-3[4:1],2,
4<7[8:1],4/1,{8}2h[2:1],8,1,3,
{4}3-6[8:1],{8}3/1,2,3h[8:1],7,{16}3,6,2,5,
{8}2h[8:1],{16}4,1,,6,4,6,{8}2h[8:1],4,6h[8:1],4,
7h[8:1],{16}5,8,,3,5,3,{8}7h[8:1],5,3h[8:1],5,
2h[8:1],{16}8,4,,6,8,6,{8}2h[8:1],8,6h[8:1],8,
{4}1-5[1:1],2,{8}2,2,{4}2v5[8:1],
{8}2b,{16},,,,,,,,2,2,{8}7,1b,
{4}8-4[8:1],3-1[8:1],{8}3V57[4:1],5,{4}7V13[4:1],
{8},,5-8[8:1],6,{2}5-2[8:1]*-1[8:1],
{4}6-8[8:1],3-8[8:1],{8}6V83[4:1],5,{4}3V58[4:1],
{8},,2-4[8:1],1-7[8:1],{2}2-6[8:1],
{4}7-4[8:1],7/4-2[8:1],{8}4/7V52[4:1],8,{4}2V47[4:1],
{8},,8>2[8:1],2>4[8:1],4<6[8:1],6,7,8,
{4}1-5[8:1],{8}7/1,8,{4}1-5[8:1],7/1,
{8}8-6[8:1],8-2[8:1],{4}8-4[8:1],{16},,3,3,{8}5,2,
{4}1b-5[8:1],6-8[8:1],{8}6V42[4:1],4,{4}2V86[4:1],
{8},,4-1[8:1],3,{2}4-7[8:1]*-8[8:1],
{4}3-1[8:1],6-1[8:1],{8}3V16[4:1],4,{4}6V41[4:1],
{8},,7-5[8:1],8-2[8:1],{2}7-3[8:1],
{4}2-5[8:1],2/5-7[8:1],{8}5/2V47[4:1],1,{4}7V52[4:1],
{8},,1<7[8:1],7<5[8:1],5>3[8:1],3,2,1,
{4}8-4[8:1],{8}2/8,1,{4}8-4[8:1],2/8,
{8}1,1-7[8:1],1,1-3[8:1],4,1-5[8:1],6,1,
{1}8bV64[1:1],
3v1[1:1],
8z4[1:1],
{2}3>8[4:3],1<6[4:3],
{1}7<3[1:1],
{2}7<1[1:1],4,
8<8[2:3],2,
{1}3h[1:1],
{4}7h[48:1],,,8-4[8:1],
8b,1,{8}7,3h[8:1],{4}1,
7h[4:1],{8}1,6,2,{16}7,7,{8}1,6,
{4}1,8,{8}2,6h[8:1],{4}8,
2h[4:1],{8}8,3,7,{16}2,2,{8}8,3,
{4}6h[4:1],8,{8}6,2h[8:1],{4}8,
6h[4:1],{8}8,1,2,2h[8:1],4,6,
{4}8h[4:1],4,2h[4:1],6,
{2}7h[4:1]/3h[4:1],{8}5/1h[8:1],5,{4}3/7-5[8:1],
7,4/6h[8:1],{8}4/7h[8:1],3,{4}3/6h[8:1],
7h[8:1],{8}4/6h[8:1],4,7h[8:1],{16}3,3,{8}6h[8:1],3,
{4}3/5h[8:1],4/6h[8:1],{8}3/7h[8:1],2,{4}2/5h[8:1],
7h[8:1],{8}3/6h[8:1],3,7h[8:1],{16}3,3,{8}5h[8:1],3,
{4}4/2h[8:1],5/3h[8:1],{8}2h[8:1],5,{4}5/3h[8:1],
2h[8:1],{8}3h[8:1],5,2h[8:1],6,3h[8:1],6,
4h[8:1],7,3h[8:1],{16}7,7,{8}2h[8:1],7,4h[8:1],{16}7,7,
{8}2h[8:1],{16}6,6,{8}3h[8:1],{16}6,6,4h[8:1]/7h[8:1],,,6h[8:1]/3h[8:1],,,{8}5/2,
{4}1-4[8:1]/4v7[8:1],1b-7[8:1]/4b-6[8:1],1/4V28[4:1],8V64[4:1]*-3[8:1],
{8},,1-4[8:1]*-7[8:1],2,{2}1-6[8:1]*-5[8:1],
{4}4-6[8:1]/2-4[8:1],4/2-7[8:1],{8}5V72[4:1],4,{4}5/2V47[4:1]*-8[8:1],
{8},,2-4[8:1]*-8[8:1],1/3,{4}2-6[8:1],2/6,
7-4[8:1]/4-1[8:1],4-8[8:1],{8}2V47[4:1],3,{4}7V52[4:1]*-1[8:1],
{8},,1-6[8:1],6-4[8:1],4-7[8:1],3,2,1,
{4}8-4[8:1],{8}2-5[8:1]/8-6[8:1],1,{4}2/8V24[4:1],2/8,
{8}8-6[8:1],8V64[4:1],{4}6-4[8:1],{16},,2,2,{8}4,7,
{4}8b-5[8:1]/5bv2[8:1],8-2[8:1]/5-3[8:1],8/5V71[4:1],1V35[4:1]*-6[8:1],
{8},,8-5[8:1]*-2[8:1],7,{2}8-3[8:1]*-4[8:1],
{4}5-3[8:1]/7-5[8:1],5/7-2[8:1],{8}4V27[4:1],5,{4}4/7V52[4:1]*-1[8:1],
{8},,7-5[8:1]*-1[8:1],8/6,{4}7-3[8:1],7/3,
2-5[8:1]/5-8[8:1],5-1[8:1],{8}7V52[4:1],6,{4}2V47[4:1]*-8[8:1],
{8},,8-3[8:1],3-5[8:1],5-2[8:1],6,7-3[8:1],8,
{4}7/1b-5[8:1],{8}7-4[8:1]/1-3[8:1],8,{4}7b/1b-5[8:1],7/1,
{8}6b-4[8:1],1-7[8:1],6bV82[4:1],1V35[4:1],6b,1-5[8:1],,1,
{4}3bV57[4:1],8v2[16:3],{2}8V63[4:1]*v5[8:1],
{4}4>8[4:1],4q8[4:1]*q8[4:1]`8q4[4:1],{2}4<8[4:1],
{4}5V37[4:1],5-7[8:1]*-7[8:1]`7V15[4:1],{2}5V31[4:1],
{4}8V63[4:1],3V57[4:1],{2}7-4[8:1]*-2[8:1],
{4}3V17[4:1],6v3[16:3],{2}6V84[4:1]*v1[8:1],
{4}1>5[4:1],1p5[4:1]*p5[4:1]`5p1[4:1],{2}1<5[4:1],
{4}1V37[4:1],1-7[8:1]*-7[8:1]`7V51[4:1],{2}1V35[4:1],
{4}6V83[4:1],3V17[4:1],{2}7-2[8:1]*-4[8:1],
{4}3bv6[8:1]*V58[4:1],3V17[4:1],{2}3v6[8:1],
{4}5pp8[8:3]*>1[8:1],5qq2[8:3],{2}5<1[8:1],
{4}1v4[8:1],1<5[4:1],{2}5-3[8:1]*<1[4:1],
{4}2-4[8:1],2-5[8:1]*-7[8:1],{2}2-8[8:1],
{4}3-8[8:1],3qq8[8:3]*-6[8:1],3pp6[8:3],3V17[4:1],
3-5[8:1],3V51[6:1]*-7[8:1],3-1[8:1],7-5[8:1],
7pp4[8:3]*-3[8:1],7V53[4:1],{2}7pp4[8:3],
{4}5b<1[4:1],5qq5[4:1]`1b>5[4:1],{2}5bpp5[4:1]*>5[1:2]*>1[1:1],
E
