&title= Aetheric Energy
&artist=Aran
&first=0
&des=MUVIVIT
&lv_6=14
&inote_6=(205)
{1},
{4},Cfh[8:6],,,
1b>8[4:28],,,,
,E1,E2,E3,E4,,,,,
E1,E8,E7,E6,,,,,
E2,E3,E4,E5,,E7,,E1,,
{16}E3/8x,7x,6x,5x,4x,3x,2x,1x,
{8}
8x/4h[8:1],7x,,3h[8:2],7,6,,2h[8:2],
6,5,,1h[8:3],5,,E7,,
8h[8:1]/4x,3x,,7h[8:2],3,2,,6h[8:2],
2,1,,5h[8:3],1,,E3,,
3,4,3,2,6,5,6,7,
3,4,2,1,6,5,7,8,
8b/6x,8,8/5x,8,8/4x,8,8/3x,8,
{12}8x,5,6,1x,4,3,{8}2x-5[8:1]/7x-4[8:1],,2/7,,
2b^5[8:1],1,2,8,7^4[8:1],8,7,1,
2^5[8:1],1,2,8,7x/5x,6x/4x,3x/5x,,
6^1[8:1],5,6,4,3^8[8:1],4,3,5,
6^1[8:1],5,6,4,3x/8x,2x/7x,1x/6x,,
2v5[8:1],1,2,8,7v4[8:1],8,7,1,
2v5[8:1],1,2,8,7x/5x,6x/4x,3x/5x,,
6v1[8:1],5,6,4,3v8[8:1],4,3,5,
6,7^4[8:1],,7,{24}8x,1x,2x,3x,,,{8}5x,4x/6x,3x-8[8:1]/7x-4[8:1],,3/7,,
6b-1[8:1],5,6,4,3-8[8:1],4,3,5,6x/1x,2x/7x,3x/8x,,
7-4[8:1],8,7,1,2-5[8:1],1,2,8,
7-4[8:1],8,7,1,2x/5x,3x/6x,4xw8[8:1]/7x,,
4,,,{16}1,8,{8}2q6[8:1],1,2,8,
7p3[8:1],8,7,1,2^5[8:1],1,2,8,
7^4[8:1],8,7,1,{16}2x,2x,2x,2x,2x,2x,2x,,
1x/3x,,4x/8x^5[8:1],,,,{24}8x/4x,3x,2x,{16}1h[8:4],E4,E3,E2,E1,E8,E7,E6,
{8}E5,,2q6[8:1],,2,7-5[8:1]*-4[8:1],,7,
,{16}3x,4,2x,,{8}1x-3[8:1],,8x-4[8:1],,7x,6h[8:2],,3h[8:2],,4,3h[8:2],,5,
3h[8:2],,6,3h[8:2],,7,3h[8:2],,
,,7p3[8:1],,7,2-4[8:1]*-5[8:1],,2,
,{16}6x,5,7x,,{8}8x-6[8:1],,1x-5[8:1],,2,3h[8:4],,
4,,5h[8:4],,6,,7h[8:4],,8,,1h[8:4],,4-8[8:1],,
{24}4b>5[4:28],Cf,{12},,{4}
,,,,E1,E8,E7,E6,,,,,
E2,E3,E4,E5,,,,,
B1,B3,B5,B7,,E1/E2,,E3,,
{16}3x,4x,5x,6x,7x,8x,1x,2x,
{8}
3h[8:4],,,5,6h[8:4],,4,,5,6,4,5,3h[8:2],,B7,,
6h[8:4],,,4,3h[8:4],,5,,4,3,5,4,6h[8:2],,B2,,
4/6<4[8:4],2h[8:3],,,,,1h[8:6],,B2,,B4,,B6,,,,
5/3>5[8:4],7h[8:3],,,,,8h[8:4],,B7,,B5,,B3/6-3[8:1],,,,
2h[8:3],3,,4,2h[8:3],4,,5,2h[8:3],5,,6,2-5[8:1]*^4[8:1],,2b,,
7h[8:3],6,,5,7h[8:3],5,,4,7h[8:3],4,,3,7-4[8:1]*^5[8:1],,7b,,
3/4x,3,3/5x,3,3/6x,3,3/7x,3,8/4x,8,8/3x,8,8/2x,8,8/1x,8,
{16}1b,8,2,7,1,8,2,7,3,6,4,5,3,6,2,7,
{24}1b,2x,3x,4x,5x,6x,7x,8x,1x,2x,3x,4x,
{12}7x,6x,8x,2x,3x,1x,
{16}
8bv3[8:1],,3V57[8:2],,2,,1-5[8:1],,,,1,,8-3[8:1]*-4[8:1],,,,8,,,,
4x,,5-1[8:1],,,,6/5,,7h[8:2],,,,
1xv6[8:1],,6V42[8:2],,7,,8-4[8:1],,,,8,,1v7[8:1]*-5[8:1],,,,1,,,,
1x/6x^1[8:1],,,,{24}6b/1b-5[8:1],2x,3x,4x,,,1x,,,,,,
{16}2v5[8:1],,5V37[8:2],,2,,7,,,,8,,1v4[8:1]*-5[8:1],,,,1^6[8:1],,,,1^3[8:1],,,,1/4x-8[8:1],,,,4x,,,,
6v1[8:1],,1V73[8:2],,6,,3,,,,4,,5xv2[8:1],,,,
5xs1[8:2]/6x,,,,,,,,,,3x,8x,2b-6[8:1]*-5[8:1],,,,2,,,,
7^2[8:1],,,,7,,,,3-1[8:1],,4-8[8:1],,
3^6[8:1],,4,,3,,7x-4[8:1],,,,7/1,,1-5[8:1],2,3h[8:2],,
1,,,,3,,2^7[8:1],,,,2,,6-8[8:1],,5-1[8:1],,
6^3[8:1],,5,,6,,2x-5[8:1],,,,2/5b,6,7,8,1h[8:1],,
3b-1[8:1],,3,,1,,8,,7-5[8:1],,7,,5,,4,,3-8[8:1],,3,,8,,7,,
6b,5,4,3,2,1,8,7,{8}6h[4:2],,5,,4h[4:2],,3,,2h[4:2],,1,,8h[4:2],,7,,{24}B8/6b<4[1:2],Cf,B4,,,,
{4},,,,,,,2<4[8:10]*<4[8:10],,,,,,{8}7x,,2x/7x,,
1x/8x,1x,1x/7,1x,1x/6,1x,1x/5,1x,
1/5x,5x,5x/2,5x,5x/3,5x,5x/4,5x,
{16}4b,5,3,6,4,5,2,7,3,6,2,7,3,6,1,8,,,1b/8b,,1b^4[8:1]/8b^5[8:1],,1b/8b,,1bs5[8:1]/8bz4[8:1],,,,1/8,,,,
2-5[8:1],,3/4,,2,,6x,7x,8x^5[8:1],,4-1[8:1],,8,,4,,
7-4[8:1],,6/5,,7,,3x,2x,1x^4[8:1],,5-8[8:1],,1,,5,,
2-6[8:1],,1x/3x,,2,,7x,8x,1x^6[8:1],,5^2[8:1],,1,,5,,
7-3[8:1],,6x/8x,,7,,2x,1x,8xw4[8:1],,,,8b,,,,
1-5[8:1],,2/5x-2[8:1],,1,,6x,7x,8x-4[8:1],,3-1[8:1],,8,,3,,
5-1[8:1],,6/1x-6[8:1],,5,,2x,3x,4x-8[8:1],,7-5[8:1],,4,,7,,
2-6[8:1],,3/6x-3[8:1],,2,,7x,8x,1x-5[8:1],,2-6[8:1],,1x,,2,,
1x>4[8:1]*^6[8:1],,,,1xw5[8:1],,,,1b,,,,3,7,2,8,
1h[8:2],,,,{32},2x/8x,3x/7x,4x/6x,5x,,,,{16}3-7[8:1],,2,4,3x,,6,,
8-4[8:1],,4-6[8:1],,8,,3x,,2,,1-6[8:1],,2,,1x,,3-8[8:1],,2x,8,3,,7x,,6^3[8:1],,7x,3,6,,2x-6[8:1],,
1-5[8:1],,2<4[8:2],,1,,2x,,,,,,3x/6x,,2x/7x,,
2,3,1,8,2,,7,6,8,1,7,,3,2,4,5,3,,6,7,5,4,6,,1,2,3,4,5/8,7,6,5,4/1,8,7,6,
{32}5/8,7,6,5,4,3,2,1,8,7,6,5,4,3,2,1,8/4x,7x/3,6/2x,5b/1b,,,,,
{16},,2b/4b,,,,7b/5b,,,,1b/8b,,3b-7[8:1]/6b-1[8:1],,,,{24}3bV15[8:28]*v5[8:28]/6b,Cf,,,,
