&title=Lyrith-迷宮リリス-
&artist=ユメミド
&first=-0.64
&des=Rotifera[Rabyrinth]
&lv_5=14+
&inote_5=(177){4},{24},,,,,,,,,,,,,,,,B4,B3,
{4}B2,7h[4:1],1h[4:1],2h[4:1],
{2}3h[2:1],{16}5h[2:1],,,,,,,Ch[16:1],
,,,,{4}6h[4:1],4h[4:1],{32}3,2,1,8,,,,,{8}2h[2:1],
,,8,{2}8,
{4}7h[1:1],E1,E2,E3,
3h[1:1],E5,E6,E7,
7,E1,7/E2,E3,
3/E5,3/E6,3/E7,3/E8,
Cfh[1:1]`E1`B8`B1,,,7-3[8:1]*-3[8:1],
{8}7b>4[8:3],,,,,,,5/6,
{4}7/4,{16}3,4,5,6,7-3[8:1],8,1,2,{4}3x/7bx,
{8}2x/4x,1,8,7x/5x,2x/4x,1,8,7/5,
2/4,8/1,{16}7,5,,4,{8}2,1h[8:1]`8h[8:1],,,4/7<4[8:1],
8,7/4,3,5/2>5[8:1],1,2/5,6,
7h[4:1],{16}8,1,2,3,4,5,6/8h[4:1],5,4,3,{4}2,
{8}5/2-5[8:1],1,2/5,6,4/7-4[8:1],8,7/4,3,
2x/4x,7x/5x,{16}3x/1x,3x/1x,,6x/8x,{8}8x/6x,8xp5[8:5]/1xpp4[8:5],{16},,,,,,,,,,,,,,,Ch[16:1],
,,,,{8}4h[4:3]/7pp4[4:5],
,,,,,,3,
3,,,2,2,,,1,
5h[4:3]/1pp4[4:5],,,,,,,6,
6,,,7,7,,,8,
4h[4:3]/8qq4[4:5],,,,,,,3,
3,,,2,{4}2,1w5[8:1],
1b,8w4[8:1],8b,1-5[8:1],
1b>4[8:1]*<6[8:1],1b,{16}1xs5[8:1],1x,1x,1x,{4}1x,
7<4[4:1],4>1[4:1],1<6[4:1],6,
{8}4,3,2/5,1,{16}8/7,,,6,{8}5,7/4,
{4}2>5[4:1]*>5[4:1],5<8[4:1]*<8[4:1],8>3[4:1]*>3[4:1],3,
{8}5,6,7/4,8,{16}1/2,,,3,{8}4,5/2,
{4}7V53[4:1],3V17[4:1]*V17[4:1],7V53[4:1],3,
{8}2,1,7/8,6,{16}5/4,,,2,{8}1,3/8,
{4}2V46[4:1],6V82[4:1]*V82[4:1],2V46[4:1],6,
{8}7,8,2/1,3,4/5,6-2[8:1],1<4[2:1],6,
{4}1xh[2:1],{8},,,,1,2,
3/5,6,{16}7/8,,,2,{8}1,3/4,6/5>8[2:1],4/7,
{4}8xh[4:1],{8},,,,5,6,
7/1,2,{16}3/4,,,6,{8}5,7/8,1/2,3/4,
{2}5/1s5[8:1],{4}7h[8:1]/3h[8:1],1h[8:1]/5h[8:1],
{8}2/4,3/5,4/6,5/7,1/8-4[8:1],Ch[16:1],,,2/5,
{16}3,4,{8}3,1/8,7/4,{16}6,5,{8}6,8/1,
{4}4h[8:1]/2h[8:1],5h[8:1]/7h[8:1],8-4b[8:1],,
{8}7/3b,6,5,4/8b,3,2,1/5b,{16}8,7,
{8}8,5/6,4/3,2/1,{16}8,7,6,5,{8}4b/2<7[8:1],3,
4,5>2[8:1],6,7,8<5[8:1],{16}1,2,{8}3,3h[8:3],
2,1,{16}8,7,6,5,{8}2/4b,3,4,5/1b,
6,7,8/4b,{16}1,2,{8}1,4/3,5/6,7/8,
{16}1,2,3,4,{8}5b/7>2b[8:1],6,5,4<7b[8:1],3,2,
1>4b[8:1],{16}8,7,{8}6,6h[2:1],{32}7,8,1,2,3,4,{16}5,{32}7,8,1,2,{8}3,
6/5,7,8/2,3,4/5,6,7/1,{16}1/7,2/6,
{8}3/5,4,2/1,7/8,{16}5/1-5[8:1],6/2,7/3,8/4,{4}5/1,
{8}8/2,3,4/5,6,7/1,{16}1/7,2/6,{8}3/5,4,
7/8,2/1,{16}4/8-4[8:1],3/7,2/6,1/5,{4}4/8,{8}6/5,7,
{16}8/2,3,{8}4,7/1,{16}1/7,2/6,{8}3/5,4h[16:5],{16}1,2,{8}3,
{16}5/1-5[8:1],6/2,7/3,8/4,{4}5/1,{8}8/2,3,4/5,6,
7/1,{16}1/7,2/6,{8}3/5,4,7/8,2/1,{16}8-4[2:5],7/1,6/2,5/3,
{4}4,{8}3h,2h,1h,7h,6h,5h,
2h,3h,4h,6h,7h,8-4b[0.5085##0.0847],,,,,,,,,,,
{2}2h[2:1],4h[2:1],
{1}5h[1:1],
{2}6,{4}7h[4:1],6h[4:1],
5h[1:1],,,2,
{2}2,{4}7h[4:1],Ch[4:1],
5h[#2.372887],,,Ch[4:1],
{1},
{4}Cf,8b-4[8:1]/2b-6[8:1],2b>5[8:1]/8b<5[8:1],2b/8b,
{32}1,2,3,4,5,6,7,8,1,2,3,4,5,6,7,8,{2}1/Cf,
{8}1/7-4[8:1],{16}6,5,{8}7,{16}3,2,{8}1/7-4[8:1],{16}6,5,{8}7,{16}3,2,
1/7,,,1>7[16:5],{8}8,8h[8:3],,,,,8/2-5b[8:1],
{16}3,4,{8}2,{16}6,7,{8}8/2-5b[8:1],{16}3,4,{8}2,{16}6,7,
8/2,,,8<2[16:5],{8}1,1h[8:3],,,,,1/7-4[8:1],
{16}6,5,{8}7,{16}3,2,{8}1/7-4[8:1],{16}6,5,{8}7,{16}3,2,
{8}1/7,6/5,4/3,2/1,{4}8h[16:3]/4h[16:3],{48}7x/3x,6x/2x,{24}5x/1x,,,,,{4}1-3[8:1]/5-7[8:1],
5-2[8:1]/1-6[8:1],5-1[8:1]/1-5[8:1],1/5,
{32}8,7,6,5,4,3,2,1,8-4[8:1],7,6,5,4,3,2,1,{2}8/Cf,
{8}7v4[8:1],{16}3,2,{8}7x/1-5[8:1],{16}5,6,{8}1x/7-3[8:1],{16}4,3,{8}7x/2v5[8:1],{16}4,5,
2x/6,,,8,{8}8,8h[8:3],{32}1,2,3,4,5,6,{16}7,{4}1,
{8}2v5b[8:1],{16}6,7,{8}2x/8-4b[8:1],{16}4,3,{8}8x/2-6b[8:1],{16}5,6,{8}2x/7v4b[8:1],{16}5,4,
7x/3,,,1,{8}1,1h[8:3],{32}8,7,6,5,4,3,{16}2,{4}8,
8-6[8:1]/1-6[8:1],1-3[8:1]/8-3[8:1],8<6[8:1]/1v6[8:1],1>3[8:1]/8v3[8:1],
8-6[8:1]/1-5[8:1],1-3[8:1]/8-4[8:1],8/1,8/1,
{8}7/5,2/4,{16}8/6,6/8,,3/1,{8}1/3,{16}8,7/1,2/6,5/3,{8}4,
{16}1,2/8,7/3,4/6,{8}5,8/1,{48}1/8,2/7,3/6,4/5,,,,,,,,,{4}Ch[16:1],
{16}7b,4,5,2,6,4,8,2,6b,1,8,3,7,1,5,3,
6b,4,8,3,5b,1,7,1,5b,2,8,4,8,1,8,1,
{8}7/2,2/7,6/3,4/5,{16}4/2,2/4,,5/7,{8}5/7,8/1,
{16}7,6,5,4,1,8,7,6,{32}3,2,1,8,7,6,5,4,{16}3/1x,1x,1x,1x,
1bx,4,3,6,2,4,8,6,2b,7,8,5,1,7,3,5,
2b,4,8,5,3b,7,1,7,3b,6,8,4,1,8,1,8,
1,7,1,6,1,5,1,4,1,5,1,6,1,7,{8}1,
{48}1b,8x,7x,6x,{12}5x,{48},,,,{16}8,4,8,3,8,2,{8}8,{48}8b,1x,2x,3x,{6}4x,
{2}5h[4:1]/1h[4:1],3h[4:1]/7h[4:1],
{4}8<5[8:1]/4>1b[8:1],4-7b[8:1]/8-3[8:1],4-1b[8:1]/8-5[8:1],8>6b[4:5]/4<2[4:5],
,,,,,,Ch[16:1],
{8}6-8[8:1],5,
{4}6/4,{8}6-8[8:1],5,{4}6/4,{8}6-8[8:1]/5qq1[8:5],4,
{4}6/5,6-8[8:1],6,{8}3-1[8:1],4,
{4}3/5,{8}3-1[8:1],4,{4}3/5,{8}3-1[8:1]/4pp8[8:5],5,
{4}3/4,3-1[8:1],3,7-5[8:1],
7/3-1[8:1],3/8-4[8:1],{2}8w4[8:1],
{8}7/1,2/6,3/5,4/8,{2}6/2qq7qq4qq1b[4:15],
{1},,,{4},,,{16}8-4[8:1],
4,6,2,
{1}8,
E
