&title=Love is Show
&artist=鈴木雅之 feat. 高城れに
&first=0
&des=MYOU
&lv_5=13
&inote_5=(141)
{1},
{16},,6,5,,3,4,,6,5,,4,5,3,6,2,
7,1,{8}8V64[4:1],,4-8[8:1],,1,2-6[8:1],,
{8}7h[4:1],,8,16,7,48,4>1[8:1]/8<5[8:1],,
4b/8b-4[8:1],,,6h[4:1],,2,3,45,
{8}5/6<1[4:1],,6/1<5[4:1],,,3,4,5>2[8:1],6
,7h[4:1],,8,6/1h[4:1],,8,2v5[8:1]/7,
{8}3/6-1[8:1],,,,48,37,2>4[8:1]/6<1[8:1],,
2bq6[8:1]/6b,,,,1,2,3-1[8:1]/7-5[8:1],48,
{8}3b-5[8:1]/7b-1[8:1],,3bpp6[8:3]/7b,,3h[8:3],,,,
2,1/5<8[8:1],,15,2>5[8:1],,2/7qq1[8:3],,
{2}5h[8:3],
{16},,8,1,7,2,6,3,
{16}5,4,6,,56,,3,,24,,7,,4qq4[4:1]/8,,,,
{8}5/4pp4[4:1],,,,8,7,6-1[8:1],5,
{8}4w8[8:3],,,,,,,4/1w5[8:3],
,,,,,,6/5-1[8:1]*v8[8:1],,
{8},,3/4-8[8:1]*v1[8:1],,,,4/5v2[8:1]*v8[8:1],,
,,6qq7[4:1]/3,,1,2,3-8[8:1],4,
{8}5w1[8:3],,,,,,,7/4w8[8:3],
,,,,,,2v5[8:1]/8v5[8:1],,
{8},,7v4[8:1]/1v4[8:1],,,,3v1[8:1]/6v8[8:1],,
{8},,27,36,4>1[8:1]/5<8[8:1],,,,
{8},2,2,6,3,5-3[8:1],5-7[8:1],,
,,3,3,4,5,6h[4:1],,
{8}5,5/6>3[8:1],,2,2h[4:1],,8h[4:1],,
5h[4:1],,6,6,5,4,3h[4:1],,
{8},37,7,2,5,1-4[8:1],1-6[8:1],,
,,3,3,4,5,6h[4:1],,
{8},26,26,37,37,6,5/4>5[2:1],,
4h[2:1],,,,,,4,6,5,
{16}7-3[2:1],,,7,,,7,,,,,,5,,
4,,2v5[8:3],,,2,,,2,,,,,,,,
{16}64,,7h[16:3]/5,,,1,,,43,,3/2h[16:3],,,8,,,
{8}5/7h[4:1],,8,61,52,8b,74,65,
{8}4>1[8:1],,7,6,5,2/5<8[8:1],,2,
3,5>2[8:1],,7,6,4-8[8:1],,,
{8}3h[4:1],,8,37,2,25,43,4q7[8:3]/3qq8[8:3],
,,,,,,56,5p2[8:3]/6pp1[8:3],
{8},,,,,,4-8[8:1]/3,52,
1h[4:1],,7,62,5,4/3h[8:1],2-6[8:1],41,
{8}8h[2:1],,5,4,2,87,8/7-3[8:1],,
{8}2h[4:1],,1,83,2,51,5<8[8:1]/1>4[8:1],,
5b/1bq6[8:1],,,3h[4:1],,7,6,54,
{8}4/3>7[4:1],,3/7>4[4:1],,,6,5,4<7[8:1],3
,2h[4:1],,1,3/8h[4:1],,1,7-4[8:1]/2,
{8}6/3v8[8:1],,,,51,62,7<4[8:1]/3>8[8:1],,
7bqq2[8:3]/3b,,,,8,7,6-8[8:1]/2-4[8:1],51,
{8}6bv8[8:1]/2bv4[8:1],,6bpp2[8:3]/2b,,6h[8:3],,,,
73,8/4p8[8:1],,84,6>3[8:1],,6/2qq6[8:3],,
{2}2/4h[8:3],
{16},,1,8,2,7,3,6,
{16}4,5,2,,53,,74,,65,,52,,4qq5[4:1]/3,,,,
{8}4/6pp5[4:1],,,,1,2,8qq5[8:9]/4qq1[8:9],51,
