&title=Tachyon
&artist=Zekk
&first=-0.08
&des=Xuyu
&lv_5=14
&inote_1=
&inote_5=(165)
{8},,4h[16:3]/5h[16:4],,,,
5h[8:14]/6-1-3>8-6[8:12],,,,,,,,,,,,,,,,
4h[8:14]/3-8-6<1-3[8:12],,,,,,,,,,,,,,,,
6h[4:1]/1-3[8:1],,1,,7h[4:1]/2-4[8:1],,2,,3h[4:1]/8-6[8:1],,8,,2h[4:1]/7-5[8:1],,7,,
3v6[8:1]*-8[8:1],24,3,,5-2[8:1]*-8[8:1],46,5,,Ch[4:1],,,,Cf,,,,
4h[4:7]/3-5-1-7[2:3],,,,,,,,,,,,,,,,
5h[4:7]/6-2<4[2:3],,,,,,,,,,,,,,,,1v4[8:1]/8-5[8:1],,1/8,,2v5[8:1]/1-6[8:1],,2/1,,
8v3[8:1]/7-4[8:1],,8/7,,4x-1[8:1]/5x-8[8:1],,A5/A4,,2h[16:1]/5h[16:1],2h[16:1]/5h[16:1],7h[16:1]/4h[16:1],7h[16:1]/4h[16:1],
{16}1,8,2,7,3,6,4,5,4h[1:1]/Ch[4:3],,,,,,,,,,,,,,,,C,,,,
84,,8-4[8:1]/4,,26,,8>3[8:1]/4,,,,,,,,,,
15,,1-5[8:1]/5,,73,,1-6[8:1]/5,,,,,,,,,,
2-6[8:1]/6,,8-4[8:1]/4,,2,,8,,,,
{32}3,2,1,8,7,6,5,4,37,,,,
{8}2h[16:1]/5h[16:1],2h[16:1]/5h[16:1],7h[16:1]/4h[16:1],7h[16:1]/4h[16:1],1s5[8:1]/8z4[8:1],27,18,,
{16}2/6,,2-6[8:1]/6,,4/8,,2>5[8:1]/6,,,,2,,,,,,
3/7,,3-7[8:1]/7,,1/5,,3-8[8:1]/7,,,,3,,,,,,
2-6[8:1]/6,,8-4[8:1]/4,,2,,8,,,,1h[4:1],,,,,
{32}6,5,4,3,2,1,8,7,6bh[8:1]/2h[8:1],,,,,,3bh[8:1]/7h[8:1],,,,,,8bh[16:1]/4h[8:1],,,,,,Ch[8:1],,,,,,,,
{16}1-3-5[8:1]/5,,1/5-1[8:1],,
{32}5x,6x,7x,8x,1x>6[4:1],,,,,,,,,,,,,,,,,,,,
{16}8-6-4[8:1]/4,,8/4-8[8:1],,
{32}4x,3x,2x,1x,8x<3[4:1],,,,,,,,,,,,,,,,,,,,
{16}1-3-5[8:1]/5,,1/5-1[8:1],,
{32}5x,6x,7x,8x,1x,,,,,,,,,,,,
{8}2h[16:1]/5h[16:1],7h[16:1]/4h[16:1],2h[16:1]/5h[16:1],7h[16:1]/4h[16:1],1s5[8:1]/8z4[8:1],27,18,,Ch[16:1],,
{16}8-6-4[8:1]/4,,8/4-8[8:1],,
{32}4x,3x,2x,1x,8x<3[4:1],,,,,,,,,,,,,,,,,,,,
{16}1-3-5[8:1]/5,,1/5-1[8:1],,
{32}5x,6x,7x,8x,1x>6[4:1],,,,,,,,,,,,,,,,,,,,
{16}8-6-4[8:1]/4,,8/4-8[8:1],,
{32}4x,3x,2x,1x,8x,,,,,,,,,,,,
{8}1-3[8:1],8-4[8:1],1-5[8:1],8-6[8:1],1,8,,5x,4-1-3[8:1],,,5,6-1-7[8:1],,5,4-1-3[8:1],,,,7-4-6[8:1],7,,2-5[8:1],2,12,8-6[8:1],3,8,2-6[8:1],6-3[8:1],2,8-4[8:1],7,8>3[8:1],1,8,6,6,,
4x,5-8-6[8:1],,,4,3-8-2[8:1],,4,5-8-6[8:1],,,,2-5-3[8:1],2,,7-4[8:1],7,87,1-3[8:1],6,1,7-3[8:1],3-6[8:1],7,1-5[8:1],2,1<6[8:1],8,1,3-8[8:1],7,3,,
{32}1b-5[1:7]/5,26,37,48,15,,,,
{4},,,,,,,,,,,,,,
{8},E1,E8,,,E2,E3,,,B1,A1,,,B1,C,,,1,1h[2:1],,,,,,,,,,,Ch[4:1],,,,,
2/4,4-8[8:1]/6,24,46,,5-7[8:1],5-3[8:1],5-1[8:1],5,5,,8-6[8:1],1-5[8:1],8-4[8:1],1,8,
3,5-1[8:1]/3,75,53,,4-2[8:1],4-6[8:1],4-8[8:1],4,4,,1-3[8:1],8-4[8:1],1-5[8:1],8,1,
7-3-7[4:1],6,5h[8:1]/7,,,1-3[8:1],8-4[8:1],1-5[8:1],8,1,,4/6,4-8[8:1]/2,46,4/2h[8:1],,2-6[8:1],8-4[8:1],2,8,
{24}1b,2,3,8,7,6,1b,2,3,8,7,6,2b,3,4,7,6,5,2b,3,4,7,6,5,Ch[2:1],,,,,,,,,,,,
{8}6v4v2[2:3],,,,,,,,,,,,,,,,2h[4:7]/8-5>4[2:3],,,,,,,,,,,,,,,,3/8-6[8:1],3,38,3,2/7-5[8:1],2,27,2,6/1-3[8:1],6,61,6,7/2-4[8:1],7,72,7,
{8}5hx[16:1]/7hx[16:1],5h[16:1],4h[16:1]/6h[16:1],6h[16:1],3h[16:1]/5h[16:1],3h[16:1],2h[16:1]/4h[16:1],4h[16:1],
{16}1,5,1,5,1,5,1,5,
{32}1,2,3,4,5,6,7,8,1-5[8:1],2h,3h,4h,5h,6h,7h,8h,1/5<8[4:1],,,,Ch[5:3],,,,,,,,,,,,,,,,,,,,,,,,,,,,
{16}26,,48,,3-7[8:1],4,2,5,3,,6,6,8,,1/7,,
{16}2,4,3,7,5,6,4,,1/7,,
{16}2,4,3,7,5,6,2b/6b,,48,,
6-2[8:1],5,7,4,6,,3,3,1,,8/2,,
7,8,7,8,6,1,4,3,7,5,1,2,6,8,5,3,3b/7b,,15,,
1-5[8:1],2,8,3,1,,4,4,6,,7/5,,3,3,4,2,7,8,6,,
3h[16:1]/4h[16:1],,,1h[16:1]/8h[16:1],,,6h[16:1]/5h[16:1],,
{16}2-4[8:1],1,3,8,2,1,1,,
6-8[8:1],5,7,4,6,5,5,,
{16}2-4[8:1],1,3,8,2b,,,{32}7b,6,5,4,,,1/6b,2,3,4,,,1b/8b,27,36,45,,,
Ch[4:3],,,,,,,,,,,,,,,,,,,,,,,,,,,,,,,,
{16}7,5,6,2,4,3,5,,8/2,,
{16}7,5,6,2,4,3,7b/3b,,51,,
1-5[8:1],2,8,3,1,,4,4,6,,7/5,,
2,1,2,1,3,8,5,6,2,4,8,7,3,1,4,6,6b/2b,,15,,
8-4[8:1],7,1,6,8,,5,5,3,,2/4,,6,6,5,7,2,1,3,,
6h[16:1]/5h[16:1],,,8h[16:1]/1h[16:1],,,3h[16:1]/4h[16:1],,
{16}25,25,,47,47,,12,12,,78,78,,45,45,45,,{8}1-3[8:1],8-4[8:1],1-5[8:1],8-6[8:1],1,8,
{16}4-8[8:1],3,2,1,8/Cf,,,,,,
{8}5x,4-1-3[8:1],,5,6-1-7[8:1],,,,5,4-1-3[8:1],,7-4-6[8:1],7,,2-5[8:1],2,12,8-6[8:1],3,8,2-6[8:1],6-3[8:1],2,8-4[8:1],7,8>3[8:1],1,8,5,6-1-7[8:1],,,
{8}5x,4-1-3[8:1],,5,6-1-7[8:1],,,,5,4-1-3[8:1],,7-4-6[8:1],7,,2-5[8:1],2,12,8-6[8:1],3,8,2-6[8:1],6-3[8:1],2,8-4[8:1],7,8>3[8:1],1,8,,
{32}8b/4x,73,62,51,4-8[1:2]/8,E
