&title=1llusion 0f the FAIRYtALE hARMONY
&artist=リンカ(CV:豊田萌絵)ユメ(CV:高橋菜々美)セイネ(CV:河上英里子)
&first=1.24
&des=MiraT the 10th
&lv_5=13
&inote_5=(180)
{8}1h[4:1],,8,8h[4:1],,1h[4:1],,8h[4:1],
{8},1,1h[4:1],,8h[4:1],,1,,
{8}2,1,8,7p2[8:1]/2,,3<6[8:1],,8,,
{8}7,7,,6-1[8:1]/2-5[8:1],,62,,
{16}8,7,6,5,4,3,2,1,A8,A7,A6,A5,A4,A3,A2,A1,
{16}E8,E7,E6,E5,E4,E3,E2,E1,B8,B7,B6,B5,B4,B3,B2,B1,
{4}Ch[1:1],,,,
{8},,,,46,46,,8,
{8}8^1-5[4:3],,3,3h[8:7],,,,,
{8},,,,35,35,,1,
{8}1p5p1[4:3],,6,6h[8:7],,,,,
{8},,,,46,46,,8,8-4[4:3]/1-7[8:1],,6,6h[8:7],,,,,
{8},,,,,,1w5[8:1],,
{8}1,,37,37,,2,2,{24}5,6,7,
{8}8x-5[8:1],4xp5[4:1],8x,4bx,,,7-3[8:1],,
{8}7x>5p1[4:3],,5,5,,7,,6,
{8}6,,8,82,,6,5,6,
{8}7/4-8[8:1],,6,6z2[4:1],,3,3h[4:1],,
{8}8<1[8:3],,4,4,,,2-6[8:1],,
{8}2x<4q8[4:3],,4,4,,2,,3,
{8}3,,2,28,,1,8,7,
{8}62,6v8[8:1]/2v4[8:1],62,62,,,37,,
{8}4,4,35,{16}1,7,2,6,3,5,Cf,,,,
{8}17,6,6,45,3,3,26,48,,1,1/8-4[8:1],,1-5[8:1]/8,,,,
{8}74,3,3,25,6,6,27,45,
{8},38,1<6[8:1]/2>5[8:1],,12,,,,
{8}3h[8:5],8,8,7,6,5<8[8:1],,5>2[8:1],
{8},5-1[8:1],,5,,4,47,,
{8}6h[8:5],1,1,2,3,4>1[8:1],,4<7[8:1],
{8},4-8[8:1],,4,,5,52,,
{8}A4,,7,,A3/5,,6,6,
{8}A2,,8,,8/A1,,7,,
{8}A8/1h[8:3],,,,A7/3,,2,,
{8}A6/4,,3,3h[8:3],A5,,,,
{8}B1,,6,,B2/8,,7,7,
{8}B3,,5,,5/B4,,6,,
{8}B5/4h[8:3],,,,B6/2,,3,,
{8}B7/1,1,{16}8,7,6,5,3,2,1,8,4b,,,,
{8}5-3[8:1],,5<1[4:1]/7,,2,,4,4h[4:1],
{8},,8-5[8:1],,8/7-3[8:1],,7,,
{8}5>1[4:1],,1<1[2:1],1,,5,E7/B6,,
{8}7pp4[2:1],,3,3h[8:3],,,,,
{8}1-7-5[4:1],,2,2,,4,36,,
{8}8-2-4[4:1],,7,7,,5,36,,
{8}2-5[8:1],1,2,7-4[8:1],8,7,,1>4[8:1]*<6[8:1],
{8},1w5[8:1],,1,,8,8,2b/7b,
{8},3,34,3,38,3,36,3,
{8}3-5[8:1]/1,3-7[8:1]*-7[8:1],3-1b[8:1],3,3,6,,37,
{8},2,21,7,87,3,34,6,
{8}65,1-3[8:1],8-4[8:1]*-4[8:1],1-5b[8:1],8,1,,74,
{8},3h[8:1],4,3h[8:1],8,3h[8:1],6,3h[8:1],
{8}7-5[8:1],3-1[8:1]*-1[8:1],7-3b[8:1],3,7,2,,6,
{8}6<1[8:1],,3,3<6[8:1],,8,8>3[8:1],,
{8}5,5<8[8:1],,,4,,8,1,
{8}2h[4:1]/7,,6,1/5h[4:1],,2,38,,
{16}7,,7,,78,,1,6,1,6,1,,78,,,,
{8}6h[4:1]/3,,2,5/1h[4:1],,6,74,,
{16}3,,3,,34,,5,2,5,2,5,,34,,,,
{8}E8,,4,5,E2/B2/6,,45,,
{8}E4/B4/B3/7,,8,1,{16}A6/E7/E6/B6/2,,,18,,,37,,
{8}B7/B8/B1/B2/C,,4,4,B6/E7/B7/B8/E1/B1,,5,,
{8}B5/B4/B3/B2/E5/E4/E3,,1,1,{16}A8/A7/A6/D8/D7/B8/B7/B6,,,1x/3x,,,4x/5x,,
{16}B1/B2/B3/B4/B5/B6/B7/B8/Cf,,,,,,1,8,2-5[8:1]/7-4[8:1],,,,,,,,
{16}18,,,24,,,57,,{32}18,2,3,4,5,6,7,8,1/5-8[8:1]*-2[8:1],,,,,,,,
{8}5b,,3>4[1:1],7h[8:1],,,E3,,
{8}E7,,E1,C/B5/B4,,3,3,3,
{8}8-4[8:1],1,8,1-6[8:1],,5,5<3[8:3],5,
{8}3,,4-8[8:1],4,,,6-1[8:1]/2-5[8:1],,
{8}2b/6b,,7<8[1:1],3h[8:1],,,E8,,
{8}E4,,E6,C/B1/B2,,5,6,7,
{8}83,8-4[8:1]/3-1[8:1],83,83,,6,6w2[8:1],,
{8},,84,84,73,73,26,{24}2,3,4,
{8}5-1[8:1],,5/7x-4[8:1],,7/3x-7[8:1],,3/5x,,
{16}1h[16:3],,,2h[16:3],,,{8}3<8q1[4:3],,8,,5h[2:1],
{8},,,,,6,7,8,1-3[8:1],,8,8-4[8:1],,7,7,,
{16}2,,6,5,7,,B3/E3f/8b,,,,7,,3,4,2,,
{16}1b/E7f/B6,,,,2,,6,5,7,,B3/E3f/8b,,,,4,5,
{8}6h[8:7]/3,3,3,3,2,2,2,2h[8:5],,8,8,,{24}6,7,8,1,2,3,{8}4-1[8:1]*-7[8:1],,
{8}4b,,6<5[1:1],2h[8:1],,,E7,,
{8}E3,,E1,C/B4/B5,,6,6,6,
{8}1-3[8:1],1-5[8:1],1,,,2<7[8:1],6,2,
{8}5pp8[8:3],,4,4h[8:2],,,3-8[8:1]/7-4[8:1],,
{8}7b/3b,,2>1[1:1],6h[8:1],,,E2,,
{8}E6,,E4,C/B8/B7,,4,3,2,
{8}18,1p4[8:1]/8q5[8:1],18,18,,3,3w7[8:1],,
{8},,15,15,26,26,73,{24}7,6,5,
{8}4-8[8:1],,4/3x>8[8:1],,3/7x-4[8:1],,7/2x,,
{16}1h[16:3],,,8h[16:3],,,{8}7q5>8[4:3],,5,,6h[2:1],
{8},,,,,7,6,5,4-2[8:1],,5,5-1[8:1],,6,6,,
{16}4,,7,8,7,,B2/E2f/6b,,,,5,,2,1,2,,
{16}3b/B7/E8f,,,,4,,7,8,7,,B2/E2f/6b,,,,4,5,
{8}36,36,15,15,38,38,17,17,
{16}2,6,2,6,2,6,2,6,{32}2,3,4,5,6,7,8,1,2,3,4,5,6,7,8,1,
{32}6bhx[2:3]/2bx,B2,Cf,B6,,,,,,,,,,,,,{8},,,,
{8},,,,,,45,,
{8}7h[8:3],,3,3h[8:4],,,5,5h[8:4],
{8},,1,1h[8:4],,,6,6pp1[8:11],
{8},,,,,,,,
{8},,,,,,4,,
{8}4w8[4:6],,,,,,,,
{8},,,,,,,,
{8}C,,,,,,,,
{8}1xb/8xb,,8b/4b,6bp4>5b[8:27]/2bq4<3b[8:27],,
