&title=Gun's & Roses
&artist=Paradise Lunch
&first=0
&des=爵色
&lv_5=13+
&inote_5=(133)
{1},
{32},,,,,1b,,,,,,3/8h[32:5],,,,,5,,7,,3,,5,,,,4,,2,,6,,
{16}4>5[2:3],,,,6,,,,7,,,,8,,,,
{16}1,,,,2,,,,3,,,,4qq8b[4:3],,,,
{16}4b-7^8b[2:1],,,,,,,,,,,,,,,,
{16}1,8,2,7,3>6[6:1],6,4,5,,,,,1b,,,,
{16}2,4,3,5,4,6h[8:1],,5h[8:1],,4^7[12:1],,,3,,,,
{16}3,1,2,,6p5[4:1],8,7,1,,,,,3,,,,
{16}3,4,2,5,4,6h[8:1],,5h[8:1],,4^7[12:1],,,3,,,,
{16}2,4,3,,7p6b[4:1],5,6,1,,,,,3,,,,
{16}7,5,6,4,5,3h[8:1],,4h[8:1],,5^2[12:1],,,6,,,,
{16}6,8,7,,3q4[4:1],1,2,8,,,7b,,,7b,,,
{16}6,5,7,4,5,3h[8:1],,4h[8:1],,5^2[12:1],,,6,,,,
{16}7,5,6,,2,4,3,8h[8:1],,1,,7,2,6,3h[8:1],,
{16}4b,2,5,3,6,4h[8:1],,5h[8:1],,6p2[12:1],,,7,,,,
{16}8,5,6,,1pp5[8:3],4,3,7,,,8b,,,8bh[16:3],,,
{16}5,7,4,6,3,5h[8:1],,4h[8:1],,3q7[12:1],,,2,,,,
{16}3,4,2,2,6,5,7,7,1b,,2x/6x,,5q2b[8:1],3x/7x,,,
{16}8xb/D6f,,,,3,,,,3,,4,,3-8[8:1],,,,
{16}3h[4:1],,,,4,,,,4,,3,,4-7[8:1],,,,
{16}4h[4:1],,,,3,,,,3,,4,,3-8^1-6[2:1],,,,
{16}3h[2:1],,,,,,,,,,3,,2^7[8:1]/4,,,,
{16}5h[4:1],,,,6,,,,6,,5,,6-1[8:1],,,,
{16}6h[4:1],,,,5,,,,5,,6,,5-2[8:1],,,,
{16}5h[4:1],,,,6,,,,6,,5,,6-1[8:1],,,,
{16}7-3[8:1],,,,2-5[8:1],,,,8w4[8:1],,,,8b,,,,
{16}26,,,,1h[8:1],,4h[8:1],,3h[8:1],,7h[8:1],,5-8[8:1],,4,,
{16}25,,,,4h[8:1],,3h[8:1],,7h[8:1],,1h[8:1],,4-1[8:1],,3,,
{16}24,,,,3h[8:1],,7h[8:1],,1h[8:1],,4h[8:1],,5-8[8:1],,4,,
{16}3qq4b[4:1]/5,,,,,,,,7,,7,,1-5[8:1],6,,6,
{16}1,,,,8h[8:1],,5h[8:1],,6h[8:1],,2h[8:1],,4-1[8:1],,5,,
{16}74,,,,5h[8:1],,6h[8:1],,2h[8:1],,8h[8:1],,5-8[8:1],,6,,
{16}57,,,4h[16:3],,,3,,24,,,5h[16:3],,,6,,
{16}57,,,,45,,36,,{12}7bqq5[8:1]/2bpp4[8:1],18,18,{16},,,,
{16}3^6[8:1]/6,,3h[4:1]/6,,,,,,24,,,1,7,,8,,
{16}2q6[8:1]/6,,2h[4:1]/6,,,,,,35,,,2,8,,1,,
{16}2^7[8:1]/7,,2h[4:1]/7,,,,,,15,,,3,7,,3,,
{16}2-5[8:1]/6,,1,,8-5[8:1],,,,1v4[8:1]*v7[8:1],,,,1b,,,,
{16}6^3[8:1]/3,,6h[4:1]/3,,,,,,75,,,8,2,,1,,
{16}7p3[8:1]/3,,7h[4:1]/3,,,,,,64,,,7,1,,8,,
{16}17,,6,5,7,5,,,3,4,2,4,,,8,,
{16}17,,2h[8:1]/6h[16:3],,,,,1,7,4,1b,,3,5,3,5,
{48}2xb-6[8:1]/6xb,1x/7x,,{16},,8,2,,1<5[8:1],,5w1[8:1],,3,,,,,,
{16}3-8[8:1]/7,,,5,3,,4,,8/4-7[8:1],,,2,4,,3,,
{16}2-6[8:1]/6,,,8,2,,1v2-4[4:1]*-6-8[4:1],,5,,,,,,,,
{16}48,,7,5h[8:1],,2,4h[8:1],,1^4[12:1]*^6[12:1],28,,B1f,,,,,
{16}7-3[8:1]/3,,,1,7,,8>4[8:1],,4w8[8:1],,6,,,,,,
{16}2,4,3,7,5,6,1h[8:1],,8-4b[8:1]*-6b[8:1],1,7,2,,,,,
{16}7-3[8:1]/3,,,1,7,,8z4[4:1]*-3-1[4:1],,4,,,,,,,,
{16}1b,,34,2b/5b,,6/5,4b/7b,,1,4,3,8,5,6,{24}8xb,1xb,2xb,
{16}8xb-3[8:1]/3xb,,,3,8^5[8:1],,5pp4b[4:1],,8,,4,,3,,2,,
{16}2/6^1[8:1],,,4,6,,4,,5^2[8:1]/1,,,7,5,,7,,
{16}8-3[8:1]/2,,,3,8,,5,,46,,8,,71,,62,,
{16}7,5,6,3,4,2,5,,8q5b[12:1]*p3b[12:1],71,,B8f,,,,,
{16}1-6[8:1]/6,,,6,1^4[8:1],,4qq5b[4:1],,1,,5,,6,,7,,
{16}7/3^8[8:1],,,5,3,,5,,4^7[8:1]/8,,,2,4,,2,,
{16}1-6[8:1]/7,,,6,1,,4,,53,,7,1,6,2,5,3,
{16}6xb/2xb,,87,4xb/1xb,,2-6[12:1]/1-5[12:1],8xb/5xb,,,,,,8,,,,
{16}3,1,2,8,1,7h[8:1],,8h[8:1],,1^6[12:1],,,2,,,,
{16}2,4,3,,7qq8[4:1],5,6,4,,,,,2,,,,
{16}2,1,3,8,1,7h[8:1],,8h[8:1],,1^6[12:1],,,2,,,,
{16}3,1,2,,6pp5b[4:1],8,7,4,,,,,2,,,,
{16}6,8,7,1,8,2h[8:1],,1h[8:1],,8^3[12:1],,,7,,,,
{16}8,3,5,5,1,6,4,4,8b,,7x/3x,,4>5[4:3],6x/2x,,,
{16}1b/D4f,,,,,,,,,,,,,,,3/4pp5b[8:1],
{16}45,,,,,,,,,,,,,,,,
