&title=三月がずっと続けばいい
&artist=三月のパンタシア
&first=0.01
&des=0315umi
&lv_5=13
&inote_5=(138)
{1},
{16}4h`5,,,,,,4h`3,,,,,,,,4h[1:1],,
{16},,,,,,,,,,,,,,,,
{16}5h`4,,,,,,5h`6,,,,,,,,5h[8:6],,
{16},,,,,,,,,,,,45,,,,
{16}2-7[48:5]/7,,,,6,,,,7-3[8:1],,,,4,,,,
{16}3-6[48:5],,,,5,,,,6-4[12:1],,,,4,,,,
{16}4b[8:1]/3b^8[8:1],,,,,,,,5b[8:1]/6b^1[8:1],,,,,,,,
{16}1b/2b,,38,,7,5,,5,6-4[12:1],,1-6[48:5],,,,,,
{16}7,,5,,3,4,,4,2,,2-5[48:5],1,,1,,,
{16}7,,61,,2,4,,4,3-5[12:1],,8-3[48:5],,,,,,
{16}2,,4,,6,5,,5,47,,4h[8:1]/7h[8:1],,,5b/6b,,,
{16}2h[8:1]/4h[8:1],,,,3,4,,4,2,,2,1,,3,4,,
{16}4h[8:1]/6h[8:1],,,,5,7,,7,6^4[12:1],,,46,,,,,
{16}3h[8:1]/5h[8:1],,,,2,4,,4,3,,3,5,,5,4,,
{16}7h[8:1]/5h[8:1],,,,6,5,,5,6^3[8:1]/4^7[8:1],,,46,,,,,
{16}6h[8:1]/4h[8:1],,,,6,5,,5,7,,7,8,,6,5,,
{16}5h[8:1]/3h[8:1],,,,4,2,,2,3^5[12:1],,,53,,,,,
{16}6h[8:1]/4h[8:1],,,,7,5,,5,6,,6,4,,4,5,,
{16}2b/6b,,,1bqq2[16:6]/5bqq6[16:6],,,4b/8b,,,,,,,,,,
{16}3/7p4[16:9],,,7h[16:9]/3,,,,,,,,,,,,,
{16}2q6[16:5]/6,,,2h[16:9]/6,,,,,,,,,5,,6,,
{16}7^4[48:5]/1^4[48:5],,,71,,,,,6-3[48:5]/2-5[48:5],,,62,,,,,
{16}1-6[8:1],,,,5^8[8:1],,,,2-5[8:1],,,,4^1[8:1],,,,
{16}3h[2:1],,,,,,,,4h[2:1],,,,,,,,
{16}5h[2:1],,,,,,,,4,,4,5,3b/6b,,,,
{16}2h[8:1]/4,,3,,1h[8:1]/5,,6,3,8h[8:1],,5,,7h[8:1],,5,6,
{16}7h[8:1]/4h[8:1],,,2h[8:1]/5h[8:1],,,1-5[32:5]/8-4[32:5],,3b/6b,,,,,,,,
{16}2b^5[8:1]/1b,,,,25,,6,,7-4[8:1],5,6,,37,,2,,
{16}1^6[8:1],,1,,6,,5,,2-5[8:1],4,3,,26,,,,
{16}6^3[8:1],,,,36,,2,,1-5[8:1],8,2,,15,,6,,
{16}7^2[8:1],,7,,2,,3,,4w8[8:1],5,3,,4,,,,
{16}2b-5[8:1]/6,,2,,5,,6,,7-4[8:1],,7,,4,4,,3,
{16}3-8[8:1],,4,,5,,6,,7-4[8:1]*-3[8:1],,8,8,,,,,
{16}2h[16:3]/5,,,4,3,,7h[16:3]/4,,,5,6,,25,,37,,
{16}8-4[8:1],,3-8[8:1],,8,,3,,5^8[8:1]*^2[8:1],,,,5b,,,,
{16}7b^4[8:1]/8b,,,,74,,3,,2-5[8:1],4,3,,62,,7,,
{16}8^3[8:1],,8,,3,,4,,7-4[8:1],5,6,,73,,,,
{16}2^7[8:1],,,,72,,6,,5-1[8:1],4,6,,51,,2,,
{16}3^6[8:1],,3,,6,,7,,8w4[8:1],1,7,,8,,,,
{16}4b-7[8:1],,4,,3,,2,,1-4[8:1],,1,,5,5,,6,
{16}6-1[8:1],,5,,4,,3,,2-5[8:1]*-6[8:1],,1,1,,,,,
{16}7h[16:3]/1,,,5,6,,8/2h[16:3],,,4,3,,71,,26,,
{16}4-7[8:1],,2-6[8:1],,4,,2,,8b^5[8:1]*^3[8:1],,,,8b,,,,
{16}2b/6b,,,,,,,,7,,,,,,,,
{16}8b,,62,,2,4,,4,3-5[12:1],,7-3[8:1],,,,,,
{16}1,,26,,6,5,,5,7,,7^4[8:1],8,,8,,,
{16}1,,37,,7,5,,5,6-4[12:1],,2-6[8:1],,,,,,
{16}8,,37,,3,4,,4,5^7[12:1]/2^4[12:1],,,,2b/5b,,,,
{16}6,6h[4:1],,8,,5,5,,7/3h[8:1],,5,,4/2h[8:1],,6,,
{16}3,3h[4:1],,1,,4,4,,2/6h[8:1],,4,,5/7h[8:1],,3,,
{16}5b,3,4,3,4,3,4,3,6b,4,5,4,5,4,5,4,
{16}7b,5,6,5,8b,5,6,5,1b,5,6,5,2b,5,6-3[8:12],5,
{16}3b,,,,,,,,,,,,,,,,
{16},,,,,,,,,,,,,,,,
{16}7-2[8:11],,,,,,,,,,,,,,,,
{16},,,,,,,,,,,,,,,,
{16}6^3[8:11],,,,,,,,,,,,,,,,
{16},,,,,,,,,,,,,,,,
{16}3h,,4,,5,,6h[4:1],,,,4h,,5,,6,,
{16},,,,,,,,,,,,,,,,
{16}8b,,1,,25,,7^4[8:1],4,7,4,7,,2,,1-6[8:1],5,
{16}1,6,1,,7,,8-4[8:1],5,8,4,8,,2,,5,,
{16}37,,6,,15,,3^6[8:1],6,3,6,3,,7,,8-4[8:1],5,
{16}8,4,8,,3,,2^5[8:1],5,2,6,2,,8,,4,,
{16}2b-5[8:1]/6,,3,4,2,,6,,7-4[8:1],,8,,4,4,,3,
{16}3-8[8:1],,4,,5,,6,,7-3[8:1]/1-5[8:1],,8,8,,,,,
{16}2h[8:1]/5,,4,3,4,,7h[8:1]/4,,5,6,5,,25,,37,,
{16}3,4,2,5,4,7,5,6,4bw8[8:1],,,,4b,,,,
{16}1b,,8,,74,,2^5[8:1],5,2,5,2,,7,,8-3[8:1],4,
{16}8,3,8,,2,,1-5[8:1],4,1,5,1,,7,,4,,
{16}62,,3,,84,,7^2[8:1],2,7,2,7,,4,,5-1[8:1],2,
{16}5,1,5,,8,,7^4[8:1],4,7,3,7,,2,,6,,
{16}4b-7[8:1],,5,3,4,,2,,1-4[8:1],,8,,5,5,,6,
{16}6-1[8:1],,5,,4,,3,,2-5[8:1]/8-5[8:1],,1,1,,,,,
{16}7h[8:1]/1,,5,6,5,,8/2h[8:1],,4,3,4,,71,,26,,
{16}6,5,7,4,5,2,4,3,8bw4[8:1],,,,8b,,,,
{16}2b/6b,,,,,,,,7,,,,,,{24}2,3,4,
{16}5/8b,,6,5,7,,2,4,3,5,3,4,2,4,3,5,
{16}6bpp4[16:23]/1bpp4[16:23],,,,,,,,,,,,,,,,
{16},,,,,,,,,,,,,,,,
{16}87,,61,,3,4,,4,1-5[8:1],,2,5,1,,6,,
{16}48,,37,,6,5,,5,7h[8:1],,5h[8:1],,6,47,,,
{16}1b/2b,,38,,6,5,,5,7-4[48:5],,6,5,7,,3,,
{16}26,,15,,3,4,,4,2,,2-5[48:5],1,,1,2,,
{16}7,,38,,6,5,,5,8-4[8:1],,7,4,8,,3,,
{24}2,3,4,7,6,5,{16}1,8,4,5,26,,1-6[16:1],,,4>5[4:15],,,
{1}5b<4[16:57],,,,
E
