&title=Absolute Queen
&artist=Laur
&first=0.02
&lv_5=14+
&des_5=KaSianb
&inote_5=
(220){4},,,,,,,,{32}8b,
1x/7,2/6x,3x/5,{8}4b-7<6>5-3>2<1-4b[8:27],{4},,,{1}C,
E2/B2/E3,
B7/E7/B6,
8-5-2[8:27]/4-1-6[8:27],
C,
D1/A8/D8,
{16},D4/A4/D5,{8},,,,,,,{1}2/6>3[2:1],
8/2q7[2:1],
1/8v1[2:1],
1/8<8[8:19],
E1,
3h[8:9],
{32}1x,8x,7x,6x,{8}5bxh[32:91],{4},,,{2}2,
{4}1,8,
{32}8x,1x,2x,3x,{8}4bxh[32:27],{4},,,{32}3x/6x,
2x/7x,{16}8bxh[32:29]/1bxh[32:29],{8},,,,,,,{32}2x/7x,
3x/6x,{16}5x/4xh[16:15],{8},,,E8,B7,{4},{2}5h[1:1],
{8}E2,B2,{4},{2}1h[1:1],
{8}E6/B5/B6,B8/B7/E8,{4},{2}8h[1:1],
{8}B3/B4/E4,E2/B2/B1,{4},{12}3h[1:1],
{3},{12}2x<5[8:1],{6},{3}2x,
{12}6h[1:1],{3},{12}7x>4[8:1],{6},{3}7x,
{8}2h[1:1],{4},{8}1x-5[8:1],,1x,{4},{8}7h[1:1],
{4},{8}8x-4[8:1],,8x,{4},4b,
B4/B8,2b/6,B2/B6,
7b/4b,5b/2b,8b/3b,6b/1b,
{8}5,5,6/4,6/4,{16}3,7,3,7,2,8,2,8,
{4}1x-5[8:1],1x<6[8:1]*>4[8:1],1xw5[8:1],1bx,
8x/2x,{8}2/8x<5[8:1],2,{4}2/8x,{8}7/3x-5-1[4:1],7,
{4}7/3x,8-4[8:1],8/2-6[8:1],2/5-1[8:1],
5,{8}2,2,{4}8/1x-5[8:1],1/7x-3[8:1],
7/4x-8[8:1],4,{8}7,7,8/1,{16}3,4,
3,4,{8}3,{4}5x/2x,{8}7/4,{16}5,6,5,6,{8}5,
7/4,6/3,{4}5x/2x,6-1[8:1]/3-8[8:1],6/3,
{8}7x/2x,1x-5[8:1]/8x-4[8:1],,1b/8b,,6xh[8:1]/3xh[8:1],,7b/2b,
,2,8/1,2,3/7,6,5/2,3,
2x/6x,{16}3,5,3,5,{8}3,8x/2x,{16}4,6,4,6,{8}4,
{4}7x/1x>5[8:3],7,7,{8}7,4,
{4}2/8-4[8:1],2/8,{8}3-7[8:1],5,{4}3/6<4[8:3],
{8}E7f,{2},{8}4/5,3/6,7/2,
{16}1,2,3,4,8,7,6,5,{8},4/8,3/7,6/2,
{16}5,6,7,8,4,3,2,1,{8},2/6,3/7,4/8,
{16}2,6,2,6,{8}2,5/1,2/6,3/7,{16}4,8,4,8,
{8}4,2/6,1/7,2/8,7/3,6/4,{32}5/3,2,1,8,7,6,5,4,
{8}3x/7qq3[2:1],2x,{4}1x/7,{8}3x<7[4:1],2x,{4}1x,
{8}2,{16}1,8,1,8,{8}1,7x/2x,3/6,5x,6/2,
{4}7x-4-6[4:1]/1x-4-2[4:1],1x/7x,,2x/6x,
{32}E3,B3,{16}B4,{32},E7,B6,B5,,,,Cf,{8},{2}3v8[8:1]/7v4[8:1],
{8},1/5,2/6,7/3,8/4,{16}3,7,3,7,{8}3,
{32}B8,B7,B6,B5,B4,B3,B2,B1,{4}B8,{2}2b-4<5[8:1]/6b-8>1[8:1],
{8}3/7,2,{4}1v4[8:1]/5v8[8:1],,{8}3/7,6,
{2}5-8[8:1]/4v1[8:1],{8}2,7,1w5[16:3],2/8,
{1}1bx>8[4:29],
E8,
E7,
E6,
E4,
E3,
E2,
E1,
{8}6,5,4,3,{4}6/2,{8}3,4,
5,6,{4}7/3,{8}E6,E8,E4,E2,
7,8,1,2,{4}3/7,{8}2,1,
8,7,{4}6/2,{8}E2,E4,E8,E6,
1pp4[8:3],5,6,7,{4}8,{8}8qq5[8:3],4,
3,2,{4}1,{8}E2,E6,E4,E8,
2,3,4,5,6/2,7,8,1s5[8:3],
{4},,,1-6b[8:1]*-4[8:1],
1b,{8}3,3,{16}6,5,{8}6,3/4,5/6,
1/8,2,2,{16}7,8,{8}7,4/5,6/3,7/2,
{4}8b/1b,{8}7b/4b,5/2,{4}8/4,{8}7b/3b,1/6,
{256}5b-8-2[8:3],2bv3-5[256:95],{4},,{16},,,{64},,,{128},{8}3/7,1/5,
{4}2b-4<5[6:1]/6b-8>1[6:1],{2},{8}6/2,8/4,
{4}7b-5>4[6:1]/3b-1<8[6:1],{2},{8}8/4,1/5,
{6}2b/6b,7b/3b,8b/4b,1b/5b,{12},{8}1b/5b,4b/8b,
{1}6b/2b<8-4<6[2:5],
,,{8}3x/7x,
{16}2x,8x,{12}2x,,8x/2x,,7x/3x,,6x/4x,,5x,
{6},5x/4x,5x/4x,5bxh[2:3]/C,{3},,,,{2}7xh[2:1],
3xh[2:1],
{4}8b>3b[8:1],8/4x<7[8:1],4/1x-5b[8:1],A1/6x-1[8:1],
6/3x-8b[8:1],3/7x-4[8:1],7/2x-6b[8:1],{8}6/A2,7,
{4}8x-4[8:1],8/5x>2b[8:1],5/7x<6-4[8:1],7x-4[8:1]/1x-4[8:1],
A1/A7,{24}3,2,1,8,7,6,5,4,3,2,1,8,{4}7x-3b[8:1],
A7f/4-8b[8:1],4/2-4-6b[8:1],2/1-5b[8:1],{8}1/4,3,
{4}2<7[8:1]*>5[8:1],2,{8}6x-1[8:1]/5xv2[8:1],7/4,{4}A6/A5/D6f,
{8}8-4[8:1],7-5[8:1],8,7,2-4[8:1],1-5[8:1],2,1,
{4}8b,{16}8,8,8,8,8w4b[8:1],8,8,8,{4}8b,
7b/3b,2b/6b,8b/4b,{8}1b/5b,Cf,
,8b/3b,{4}1b/6b,{16}1b,2b,3b,4b,1b,8b,7b,6b,
{4}5b-8[8:1]*-2[8:1],A5f/D6/D5,1-5b[8:1],1/7V53b[8:1],
7/2-6b[8:1],2/8-4b[8:1],8/5,6b/3b,
{8}1p5[8:1],8<6[8:1],1>3[8:1],8q4[8:1],1-5[8:1],8-6[8:1],1,8,
{4}1w5b[8:1],D1/D2/A1f,{8}7bx/3bx,7bx/3bx,{4}7b/3b,
{16}1,8,1,8,2,7,2,7,3,6,3,6,4,5,4,5,
{24}4x,3,2,1,8,7,6,5,{6}4,{24}7b,{12},{96}1x,{48},{96}2,{48},{32}3,4,{8}7b,{32}1x,2,3,4,
{4}5bxh[1:1]/Cf,E7,E8,E1,
1bh[4:3],E2,E3,E4,
2/E5,2/E6,2/E7,2/E8,
7/E5,7/E4,7/E3,7/E2,
{32}7/2,D2f,A1,D1,A8,D8,A7,D7,A6/1-5[8:1],D6,A5,D5,A4,D4,A3,D3,{4}1w5[8:1],1bx,
{32}7/2,D8f,A8,D1,A1,D2,A2,D3,A3/8-4[8:1],D4,A4,D5,A5,D6,A6,D7,{4}8w4[8:1],8bx,
{8}6x/2,8,7/3,1,6x/4,8/2,3/4,1/7,
{16}1x,2,3,4,2x,3,4,5,3x,4,5,6,4x,5,6,7,
{8}4/8bh[1:2],{4},{8}B7,B6,{4},{8}B2,
B3,{4},{8}B5,{2}B4,
{8}4h[24:1],4h[24:1],4h[24:1],4h[24:1],5h[24:1]/3h[24:1],5h[24:1]/3h[24:1],5h[24:1]/3h[24:1],5h[24:1]/3h[24:1],
6h[24:1]/2h[24:1],6h[24:1]/2h[24:1],7h[24:1]/1h[24:1],7h[24:1]/1h[24:1],{24}8h,8h,8h,8h,8h,8h,8h,8h,8h,8h,8h,8h,
{1}8bxh[24:23],
{32}1b/7b/E8f/E1f,2b/E7/E2/6b-1-7-5-3[32:119],5b/3b/E6/E3,E5/E4/4b-1-3b[32:117],
E
