&title=サンフェーデッド
&artist=篠澤 広
&first=0
&des=再会
&lv_5=13+
&inote_5=(205)
{1},,
{16},,,,1bh[384:1],,,,1bh[384:1],,,,1bh[384:1],,,,
{16}4^6[8:1]*^1[8:1]/3,,,,,,,,57,,,,6h[8:3],,8h[8:2],,
{16},,,,73,,,,24,,,,3h[8:3],,1h[8:2],,
{16},,,,26,,,,75,,,,6h[8:3],,8h[8:2],,
{16},,,,7-4[8:1],,3-8[8:1],,,,,,,,,,
{16}8^2[8:1]*^5[8:1]/7,,,,,,,,31,,,,2h[8:3],,4h[8:2],,
{16},,,,37,,,,68,,,,7h[8:3],,5h[8:2],,
{16},,,,62,,,,31,,,,2h[8:3],,4h[8:2],,
{16},,,,3v8[8:1],,7v4[8:1],,,,,,,,,,
{16}3^8[8:1]/2^5[8:1],,,,,,,,67,,,,3h[8:3],,8h[4:1],,
{16},,,,56,,,,23,,,,6h[8:3],,1h[4:1],,
{16},,,,43,,,,76,,,,3h[8:3],,8h[4:1],,
{16},,,,2-5[8:1],,6-1[8:1],,,,,,,,,,
{16}6^1[8:1]/7^4[8:1],,,,,,,,32,,,,6h[8:3],,1h[4:1],,
{16},,,,43,,,,76,,,,3h[8:3],,8h[4:1],,
{16},,,,56,,,,23,,,,6h[8:3],,1h[4:1],,
{16},,,,3v2[8:1],,7v6[8:1],,,,,,,,,,
{16}6^3[8:1]/2^7[8:1],,,,,,,,84,,,,5-8[8:1],,1-4[8:1],,
{16},,,,8,,,,51,,,,4-1[8:1],,8-5[8:1],,
{16},,,,1,,,,84,,,,5-8[8:1],,1-4[8:1],,
{16},,,,1v7[8:1],,5v3[8:1],,,,,,,,,,
{16}4^1[8:1]/8^5[8:1],,,,,,,,62,,,,3-6[8:1],,7-2[8:1],,
{16},,,,4,,,,73,,,,6-3[8:1],,2-7[8:1],,
{16},,,,5,,,,62,,,,3-6[8:1],,7-2[8:1],,
{16},,,,5V31[16:3],,1V75[16:3],,,,,,,,,,
{16}6^1[8:1]/2^5[8:1],,,,,,,,84,,,,7-4[8:1],,3-8[8:1],,
{16},,,,4,,,,51,,,,2-5[8:1],,6-1[8:1],,
{16},,,,5,,,,84,,,,7-4[8:1],,3-8[8:1],,
{16},,,,4v6[8:1],,8v2[8:1],,,,,,,,,,
{16}7^4[8:1]/3^8[8:1],,,,,,,,51,,,,6-1[8:1],,2-5[8:1],,
{16},,,,1,,,,84,,,,3-8[8:1],,7-4[8:1],,
{16},,,,8,,,,51,,26,,,,8h[384:1],,
{16},,7,,7,,5,,2,,4,,5,,7,,
{16}8-4[8:1]/1-5[8:1],,,,,,,,26,,3h[4:1],,,,{32}8,4,5h[32:10],,
{16},,,,2,,,,73,,6h[4:1],,,,{32}1,5,4h[32:10],,
{16},,,,7,,,,26,,3h[4:1],,,,{32}8,4,5h[32:10],,
{16},,,,2,,,,73,,2^7[8:1]/6^3[8:1],,,,26,,
{16},,,,48,,,,25,,6h[4:1],,,,{32}3,7,8h[32:10],,
{16},,,,6,,,,74,,3h[4:1],,,,{32}6,2,1h[32:10],,
{16},,,,3,,,,25,,6h[4:1],,,,{32}3,7,8h[32:10],,
{16},,,,6,,,,2,,18,,18,,18,,
{16}8v3[8:1]/1v6[8:1],,,,,,,,5,,2h[4:1],,,,{32}6,3,4h[32:10],,
{16},,,,8,,,,4,,7h[4:1],,,,{32}3,6,5h[32:10],,
{16},,,,1,,,,5,,7^2[8:1]/3^6[8:1],,,,73,,
{16},,,,15,,,,4-8[8:1],,,,,,,,
{16}1^4[8:1],,,,1^6[8:1],,,,1h[4:1],,,,5,,5,,
{16}4,,8,,7h[4:1]/3,,,,1h[4:1],,,,5,,2^7[8:1],,
{16}6^3[8:1],,,,,,,,8/4,,,,1,,5,,
{16}2h[4:1]/6,,,,8h[4:1],,,,5-1[8:1],,,,,,,,
{16}8^5[8:1],,,,8^3[8:1],,,,8h[4:1],,,,4,,4,,
{16}5,,1,,2h[4:1]/6,,,,8h[4:1],,,,4,,7-3[8:1],,
{16}3-7[8:1],,,,,,,,26,,,,8<4[32:10],,4>8[16:3],,
{16},,,,,,,,2,6,2,6,2,,,,
{16}18,,,,56,,,,2,,3/4h[4:1],,,,5h[2:1],,
{16},,6h[4:1],,,,,,47,,,,3,,4,,
{16}25,,,,43,,,,7,,6/5h[4:1],,,,4h[2:1],,
{16},,3h[4:1],,,,,,52,,,,3,,5,,
{16}4/6,,,,3/7,,,,5,,4h[4:1]/6,,,,3h[2:1],,
{16},,4h[4:1],,,,,,52,,,,6,,4,,
{16}5/3,,,,6/2,,,,4,,5h[4:1]/3,,,,6h[2:1],,
{16},,5h[4:1],,,,,,47,,,,3,,6,,
{16}4/5,,,,2,,,,5,,5h[4:1],,,,3h[2:1],,
{16},,4,,,,4,,2,,,,6,,3,,
{16}5/4,,,,7,,,,4,,4h[4:1],,,,6h[2:1],,
{16},,5,,,,5,,7,,,,5,,4,,
{16}35,,,,6,,,,4,,4h[4:1],,,,5h[2:1],,
{16},,6,,,,6,,4,,,,4,,5,,
{16}64,,,,3,,,,5,,5h[4:1],,,,4h[2:1],,
{16},,3,,,,3,,5,,5,,5,,5,,
{16}6/5,,,,4,,5,,2,,3/4h[4:1],,,,6h[4:1],,
{16},,5,,5,,,,6,5,6,5,6,,4,,
{16}34,,,,5,,3,,7,,4h[4:1]/6,,,,3h[4:1],,
{16},,5,,5,,,,4,6,4,6,4,,5,,
{16}2/4,,,,3,,7,,5,,46,,,,6,,
{16}2,,4,,35,,,,2,6,2,6,2,,8h[384:1],,
{16}2,,3,,4,,5,,64,,64,,73,,82,,
{16}1,,,,3-6[8:1]/7-2[8:1],,,,7/3,,,,,,,,
||
{16}7/4,,,,1,,8/2^5[8:1],,,,2h[384:1],,,,,,
{16}7/3,,,,1,,8/3^6[8:1],,,,3h[384:1],,,,,,
{16}8/5,,,,3,,4/2^5[8:1],,,,2h[384:1],,,,,,
{16}8/4,,,,53,,6-4[8:1]/2-5[8:1],,,,2h[384:1]/6pp3[8:26],,,,,,
(205){16}1,,,,,,,,,,,,,,,,
{16},,,,,,,,,,,,,,,,
{16},,,,,,,,,,,,,,,,
{4},,8?>4b[103#128:7]*<4b[103#128:7],,
(205)
{16}8b,,,,4,,,,62,,,,{24}7,6,5,{16}4/1-4b[8:1],,
{16},,1,,{24}5,6,7,{16}8,,73,,,,{24}2,3,4,{16}5/8-5b[8:1],,
{16},,8,,{24}4,3,2,{16}1,,26,,,,{24}7,6,5,{16}4/1-4b[8:1],,
{16},,1,,{24}5,6,7,{16}8,,7b/3b,,5b/1b,,,,,,
{16}1b-6b[8:1],,,,1-4b[8:1],,,,1,,,,{24}5,6,7,{16}8/4-1b[8:1],,
{16},,4,,{24}8,7,6,{16}5,,62,,,,{24}3,2,1,{16}8/5-8b[8:1],,
{16},,5,,{24}1,2,3,{16}4,,37,,,,{24}7,8,1,{16}2/4-1b[8:1],,
{16},,4,,8b,,6bp2b[8:1],,4bp8[8:39],,2b<6[8:83],,,,,,
{1},,,,,,,,,,,
{16},,,,,,,,5-1[32:3],,,,,,,,
{16}8b^5b[8:1],,1b,,2b^5b[8:1],,,,2h[4:1],,,,6,,6,,
{16}4,,8,,1h[4:1]/6,,,,4h[4:1],,,,8,,6-3[8:1],,
{16}2-7[8:1],,,,,,,,1/5,,,,2,,5,,
{16}7h[4:1]/4,,,,1h[4:1],,,,4-8[32:3],,,,,,,,
{16}1^3b[8:1],,8,,7^4b[8:1],,,,7h[4:1],,,,3,,3,,
{16}5,,1,,8h[4:1]/3,,,,5h[4:1],,,,6,,4,,
{16}7-2[8:1]/3-6[8:1],,,,,,,,8/4,,,,7,,4,,
{16}2h[4:1]/5,,,,8h[4:1],,,,5-1[32:3],,,,,,,,
{16}7^5b[8:1],,1,,3^8b[8:1],,,,3h[4:1],,,,7,,7,,
{16}1,,5,,2h[4:1]/6,,,,8h[4:1],,,,4,,6pp8[8:1],,
{16}2pp4[8:1],,,,,,,,84,,,,7,,4,,
{16}5h[4:1]/2,,,,1h[4:1],,,,4-8[32:3],,,,,,,,
{16}2^4b[8:1],,8,,6^8b[8:1],,,,6h[4:1],,,,2,,2,,
{16}8,,4,,7h[4:1]/3,,,,1h[4:1],,,,5,,3,,
{16}2v8[8:1]/6bv4[8:1],,,,2b/6,,,,5/1,,,,7/3b,,6bh[4:1]/2,,
{16},,8,7,8,7,8,7,2h[384:1],,4,,6,,8,,
{24}2b,3,4,5h[8:3],,,{16},,,,6bpp4[16:13],,,,,,,,
{24}4b,3,2,1,,,{16},,,,3bv8[16:5],,,,,,,,
{24}7b,6,5,4h[8:3],,,{16},,,,3bqq5[16:13],,,,,,,,
{24}5b,6,7,8,,,{16},,,,6bv1[16:5],,,,,,,,
{24}2b,3,4,5h[8:3],,,{16},,,,6bpp4[16:13],,,,,,,,
{24}4b,3,2,1,,,{16},,,,3bv8[16:5],,,,,,,,
{24}7b,6,5,4h[8:3],,,{16},,,,5b-1b[32:3],,,,,,,,
{24}1bh[384:1]`Chf[384:1],2,3,,,,,,,,8bh[384:1]/C1,1,2,,,,,,7bh[384:1]`C1,8,1,,,,
{1},,
E
