&title=Chronos
&artist=TAG
&first=0
&des=in the cage of time
&clock_count=3
&lv_5=14
&inote_5=(256){2},,,
{8}1,2,3,8,7,6,2,3,4,7,6,5,3,4,5,6,5,4,1,2,8,7,1,1,
7,8,7,6,7,4,7^2[4:1],,2^5[4:1],,5-2[4:1],,2-7[4:1],,7-4[4:1],,4-8[8:3],3,2,,2h[8:1],,,,
8,7,6,1,2,3,7,6,5,2,3,4,6,5,4,3,4,5,{16}7,8,{8}7,1,2,8,8,
2,1,2,3,2,5,2^7[4:1],,7^4[4:1],,4-7[4:1],,7-2[4:1],,2-5[4:1],,5^2[4:1],,2^7[4:1],,7^4[4:1],,4-8[4:1],,
7-4[8:1],,,1-4[8:1],,8,8,,1/2,,3/4,,5/6-2[8:1],,,3-7[8:1],,8,8,,5/6,,3/4,,
1/2-5[8:1],,,8-5[8:1],,1,1,,8/7,,6/5,,4/3-7[8:1],,,6-2[8:1],,1,1b,,{12}8,7,6,1,2,3,
{8}4/5,,2,1,3,2,1h[4:1],,7h[4:1],,5h[4:1],,4^1[1:1],,,8,,7,7,,6,,5,,
1/8,,6,5,7,6,8h[4:1],,2h[4:1],,4h[4:1],,8^5[1:1],,1,1h[4:1],,,2,,3,,4,,
4/5,,2,1,3,2,1h[4:1],,7h[4:1],,5h[4:1],,4-8[8:1],,,3-7[8:1],,,2-6[8:1],,,1-5[8:1],,,
8,7,6,4,5,6,1,2,3,5,4,3,8,1,7,2,6,3,4^1[4:1]/5^8[4:1],,,,,,
1^4[4:1]/8,,4^7[4:1],,7,,8-5[4:1],,5-2[4:1],,2,,1^6[4:1],,6^3[4:1],,3,,8,1,7,8,
8^5[4:1]/1,,5^2[4:1],,2,,1-4[4:1],,4-7[4:1],,7,,8^3[4:1],,3^6[4:1],,6,,1,2,8,1,
1-6[4:1]/8,,6-3[4:1],,3,,8-3[4:1],,3-6[4:1],,6,,1-5[4:1],,8-4[4:1],,,,1,5,2,6,3,7,
4/8,,5,6,3,4,1,,3/7,,4/8,,1/5,,3,4,6,5,8,,5/7,,2/4,,
1/8,,6,3,5,4,6,3,7,2,8,1,,1b/3b,,6b/8b,,2b/7b,1,8,2,7,1,8,
2b/7b,,4,3,2,1,4/8,,3/7,,2/6,,1/5,,5,6,7,8,1/5,,2/6,,3/7,,
4/8,3,2,8,7,6,3,2,1,7,6,5,2,1,8,6,5,4,8,4,1,5,2,6,
3/7,,1,2,3,4,1/5,,2/6,,3/7,,4/8,,8,7,6,5,4/8,,3/7,,2/6,,
1/5,2,3,4/5,6,7,2/8,3,4,5/6,7,8,1/3,4,5,6/7,8,1,2b/4b,,5b/7b,,1b/8b,,
3-8[8:1],,5-8[8:1],,1,1-4[8:1],,,5^8[8:1],,1^4[8:1],,5b,,
6-1[8:1],,4-1[8:1],,8,8-5[8:1],,,4^1[8:1],,8^5[8:1],,4b,,
3-8[8:1],,5-8[8:1],,1,1-4[8:1],,,5^8[8:1],,
1,,2,,3-7[8:1],,,4-8[8:1],,,5-1[8:1],,,6-2[8:1],,,
4-1[8:1],,6-1[8:1],,8,8-3[8:1],,,4^7[8:1],,8^3[8:1],,4b,,
5-8[8:1],,3-8[8:1],,1,1-6[8:1],,,5^2[8:1],,1^6[8:1],,5b,,
4-1[8:1],,6-1[8:1],,8,8-3[8:1],,,4^7[8:1],,
1,,8,,7-3[8:1],,,8-4[8:1],,,1-5[8:1],,,2-6[8:1],,,
8b,7,6,1b,2,3,7b,6,5,2b,3,4,
{4}8-4[4:1],4-7[4:1],7,1-4[4:1],4-8[4:1],8,7^4[4:1],4^1[4:1],1-6[4:1],6-3[4:1],3-7[4:1],2,
1-5[4:1],5-2[4:1],2,8-5[4:1],5-1[4:1],1,{8}2,7,4,5,3,6,{4}1-5[4:1],,7,
8-3[4:1],3-6[4:1],6,1^4[4:1],4^7[4:1],7,8-5[4:1],5-2[4:1],2,1^6[4:1],6^3[4:1],3,
8b,,,{8}1b,7,2,6,3,5,{4}4^1[4:1],1-5[4:1],5^8[2:1],,,,
1h[4:3],3,4,5,6,7,8h[4:3],6,5,4,3,2,
1h[4:1],{8}4,1,{4}5,7h[4:1],{8}5,7,{4}4,2h[4:1],{8}4,2,5,,{12}7,2,8,{8}1,1,{4}2^5[8:1]/8^5[8:1],
2b/8b,,8-5[8:1]/4-8[8:1],4b/8b,,2^7[8:1]/7-4[8:1],2b/7b,,1-6[8:1]/8^3[8:1],1b/8b,,7-3[8:1],
7b/1-5[8:1],1b/6-3[8:1],6b/2-6[8:1],2b/8-5[8:1],8b/1-5[8:1],
1b/7-2[8:1],7b/3-6[8:1],3b/5-1[8:1],4/5b,{8}4,8,3,7,2,6,
1-4[8:1],,7-4[8:1],,8,8-4[8:1],,,5^8[8:1],,1-5[8:1],,5b,,
8-5[8:1],,2-5[8:1],,1,1-5[8:1],,,4^1[8:1],,8-4[8:1],,4b,,
1-4[8:1],,7-4[8:1],,8,8-4[8:1],,,5^8[8:1],,
1,,2,,3^6[8:1],,,1^4[8:1],,,7^2[8:1],,,5^8[8:1],,,
2-5[8:1],,8-5[8:1],,1,1-5[8:1],,,4^7[8:1],,8-4[8:1],,4b,,
7-4[8:1],,1-4[8:1],,8,8-4[8:1],,,5^2[8:1],,1-5[8:1],,5b,,
2-5[8:1],,8-5[8:1],,1,1-5[8:1],,,4^7[8:1],,
1,,8,,7^2[8:1],,,5^8[8:1],,,3^6[8:1],,,1^4[8:1],,,
8b,7,6,1b,2,3,7b,6,5,2b,3,4,5b/8b,7,6,1b/5b,2,3,4b/7b,6,5,4b/2b,3,4,
6,3,7,2,8,1,1/8,,5/6,,3/4,,1/8,7,1,2,7,6,2,3,6,5,3,4,,4/5,,4^1[4:1]/5^8[4:1],,,,,,1b/8b,
