&title=枕元にゴースト
&artist=Aiobahn&Yunomi
&first=0
&des_5=SHINIEST vs Kondou
&lv_5=13
&des=SHINIEST vs Kondou
&inote_5=(122)
{1},,,
{4}1bpp5[8:6],,8,7,
6,{8}6,6,{4}2-5[8:1],,
8bqq4[8:6],,1,2,
3,{8}3,3,{4}7-4[8:1],,
1bq2[8:6],,8,7,
6,{8}64,53,{4}4/2-6[8:1],,
{8}7b^4[8:1],7,{4}1,{8}2b-6[8:1],2,{4}8,
17,{8}71,{16}3,4,{4}2-6[8:1]*v5[8:1],2,
{8}4b-8[8:1],3,{4}42,{8}4-7[8:1],3,{4}42,
4-6[8:1],{8}43,{16}2,2,{4}7-3[8:1],78,
{8}5b-1[8:1],6,{4}57,{8}5-2[8:1],6,{4}57,
5-3[8:1],{8}56,{16}7,7,{4}2-6[8:1],21,
{8}4b-8[8:1],3,{4}42,{8}5-2[8:1],6,{4}57,
4-7[8:1],{8}43,{16}2,2,{4}8-3[8:1]*-5[8:1],8,
2b-4[8:1],7-5[8:1]/2,1b-6[8:1]/7b,1/8-3[8:1],
{8}8b/2b,2,2b/6b,6,{2}6bv1[8:1]/8bv3[8:1],
{4}7b-5[8:1],3-7[8:1],{8}4-1[8:1],4,{4}2,
2>7[8:2],{8}8,8,{2}1v6[8:1]*v4[8:1],
{8}3p7[8:1],3,{4}7,4p8[8:1]*-2[8:1],4,
{8}82,73,64,73,{4}8-4[8:1]/2-6[8:1],82,
{4}2b-4[8:1],6-2[8:1],{8}5-8[8:1],5,{4}7,
7<2[8:2],{8}1,1,{4}8v3[8:1]*v5[8:1],8,
{16}3,4,3,4,{8}2-6[8:1],1,8-4[8:1],7,{4}1h[8:2],
{16}4,2,5,3,{8}6-1[8:1],7,4-1[8:1],3,{4}7h[8:2],
{8}1b,1,{16}3,4,{8}2,8b,8,{16}6,5,{8}7,
{16}3,4,2,5,{8}3,82,{4}7-4[8:1]/1-4[8:1],17,
{16}2,2,6,4,{8}8-4[8:1],8,4,3,{4}2h[8:2]/6b,
{16}7,7,3,5,{8}1-5[8:1],1,5,6,{4}7b/3b,
1>6[8:4],1,8,7,
{8}78,78,{4}6/1^6[8:1],4-8[8:1],1,
2-6[8:1],5-8[8:1],1-4[8:1],1,
7-3[8:1],4-1[8:1],8-5[8:1],8,
2^5[8:1],8p3[8:1],2-6[8:1],2,
7^4[8:1],1q6[8:1],7-3[8:1],7,
{8}2-5[8:1],2,12,8,7-4[8:1],7,87,1,
2-6[8:1],2,21,8,7-3[8:1],7,78,1,
{16}2,4,2,4,1,5,1,5,3,4,3,4,1,6,1,6,
{8}4b-2[8:1],3,5-1[8:1],6,4-2[8:1],3,{4}45,
{8}3h[8:2],1,4h[8:2],1,5h[8:2],8,6,71,
{8}5b-7[8:1],6,4-8[8:1],3,5-7[8:1],6,{4}54,
{8}6h[8:2],8,5h[8:2],8,4h[8:2],1,3,28,
4b^1[8:1],3,6-2[8:1],7,4^1[8:1],3,{4}64,
{8}7h[8:1]/1,5,2h[8:1]/8,4,7h[8:1]/1,5,28,43,
5b^8[8:1]/1b,6,3-7[8:1],2,5^8[8:1],6,{8}35,1,
24,35,64,57,86,71,{16}2,2,{8}4b,
{16}6,6,5,7,{8}1-5[8:1],2,8-4[8:1]/1,7,{4}82,
{16}3,3,4,2,8,8,1,7,5,5,6,6,1,1,{8}8b/2b,
{4}3-5[8:1],{8}5,{16}6,6,{4}5>1[8:2],{8}6,7,
8-4[8:1],1,{4}2,{8}63,7,8-4[8:1],1,
{4}8b/2b,
{8}3,{16}3,4,{4}5b/1b-6[8:1],{8}6-2[8:1],7,
8-4[8:1],8,{4}1b-6[8:1],{8}6-2[8:1],7,8-4[8:1],8,{4}1b,
{8}6,{16}6,5,{4}4b/8b-3[8:1],{8}3-7[8:1],2,
1-5[8:1],1,{4}8b-3[8:1],{8}3-7[8:1],2,1-5[8:1],1,
{4}8b,{8}36,{16}4,5,{4}2b/7b,2,
2,2pp5[8:4],1,8,
7,{8}6,6,{4}57,7,
7,7qq4[8:4],8,1,
2,{8}3,3,{4}2-5[8:1]/4,2,
{16}6,5,,3,{8}4-7[8:1],4,1-5[8:1],1,{4}8,
{16}64,,,3,{8}4,{16}6,5,{8}7-4[8:1],8,{4}1,
{16}2,4,,7,{8}5,8,1^4[8:1],1,{4}6,
{16}75,,,8,{8}2,{16}6,4,{8}1-5[8:1],7,{4}5bw1[8:1],
{1}5b,,,
E
